<?xml version="1.0" standalone="no"?>
<!DOCTYPE svg PUBLIC "-//W3C//DTD SVG 1.1//EN" "http://www.w3.org/Graphics/SVG/1.1/DTD/svg11.dtd" >
<!--
2013-9-30: Created.
-->
<svg>
<metadata>
Created by iconfont
</metadata>
<defs>

<font id="iconfont" horiz-adv-x="1024" >
  <font-face
    font-family="iconfont"
    font-weight="500"
    font-stretch="normal"
    units-per-em="1024"
    ascent="896"
    descent="-128"
  />
    <missing-glyph />
    
    <glyph glyph-name="zhishiku" unicode="&#58950;" d="M397.9 316.906l23.667 9.59-41.142 41.141-13.069-32.27c-46.23 25.586-104.39 47.6-175.617 57.040 0 0-44.788-47.563-52.992-73.413 0 0 263.729-29.688 371.785-242.893l0.022 133.34c0-0.002-35.12 56.447-112.653 107.465zM494.692 89.339s-177.135 229.049-377.94 185.155c0 0-22.318-57.116-20.685-83.062 0 0 235.050 56.488 398.625-102.093zM67.292 152.476s-6.972-63.63 1.748-89.339c0 0 221.546 120.81 429.53 5.433 0 0-240.806 182.73-431.278 83.906zM882.36 318.994c-8.206 25.853-52.99 73.412-52.99 73.412-223.637-29.63-318.816-182.968-318.816-182.968v-133.34c108.074 213.21 371.806 242.896 371.806 242.896zM529.3 89.339c163.577 158.582 398.63 102.094 398.63 102.094 1.649 25.945-20.686 83.062-20.686 83.062-200.788 43.893-377.943-185.156-377.943-185.156zM956.705 152.476c-190.455 98.824-431.28-83.906-431.28-83.906 207.985 115.378 429.548-5.433 429.548-5.433 8.702 25.709 1.732 89.339 1.732 89.339zM679.657 546.923l-78.769 78.787-174.686-174.65 78.787-78.786zM739.83 607.456c0.873 0.798 1.746 1.577 2.62 2.45 21.713 21.712 21.713 56.945 0 78.654-21.443 21.445-56.088 21.73-77.874 0.874l-0.153 0.153-50.675-50.658 78.786-78.769 47.295 47.296zM491.162 358.446l-78.789 78.768-18.612-56.24 41.159-41.143z"  horiz-adv-x="1024" />

    
    <glyph glyph-name="gerenlishibaobiao" unicode="&#58955;" d="M503.23968 157.0048C496.128 260.84864 590.3872 374.39488 720.86528 373.76c120.97024-0.5888 217.62048-98.33984 217.61024-221.0048-0.00512-119.14752-97.94048-214.39488-220.40064-214.35392-121.71776 0.04608-214.83008 94.78144-214.8352 218.60352z m217.64608-171.89376c92.68224 0.34304 169.1904 76.66176 170.07616 169.6512 0.88576 92.6464-77.54752 171.11552-171.21792 171.3152-91.83232 0.19456-169.60512-77.60896-169.80992-169.89184-0.21504-93.91616 77.24032-171.42784 170.95168-171.07456z m109.17888 137.64096c14.58176-0.11776 26.26048 4.87424 25.85088 21.07904-0.41984 16.22528-12.57984 20.15744-26.95168 19.97312-22.94784-0.28672-45.95712 0.83968-68.8384-0.37376-16.11264-0.86016-22.75328 3.36896-21.67808 20.80768 1.45408 23.71072 0.7936 47.60064-0.03072 71.3728-0.44544 12.73344-8.27904 20.864-21.43744 20.16256-11.70944-0.62464-18.43712-8.47872-18.87744-20.18816-0.57344-15.27808-0.25088-30.59712-0.256-45.89568-0.01536-86.04672 0.87552-86.93248 86.30784-86.92736 15.3088 0.01536 30.61248 0.11264 45.91104-0.01024zM85.52448 63.17056l1.0496 25.3184c12.70272 66.87232 34.64704 129.67936 76.34432 184.832 42.69568 56.46848 96.47616 98.18112 160.6656 127.10912 8.48896 3.81952 16.99328 7.61856 28.92288 12.95872-31.7952 25.28768-59.10016 51.77856-76.22656 86.51776-43.6992 88.64768-36.4032 173.52192 22.5792 252.42112 55.59296 74.35264 155.95008 108.25216 244.608 82.944 95.64672-27.29984 153.2928-90.752 173.2096-188.61056 24.18176-118.83008-69.4784-272.67072-236.40576-273.26976-117.90848-0.41984-211.3536-53.7088-278.39488-150.96832-45.93664-66.64192-59.53536-141.92128-55.99744-221.5424 0.90112-20.29056 14.50496-15.09888 25.19552-15.10912 114.30912-0.1792 228.61312 0 342.92224 0.08192 5.12 0 10.33728 0.56832 15.32928-0.22016 17.4848-2.76992 28.25216-13.12768 27.76576-30.97088-0.48128-17.6384-11.24864-28.89216-29.04576-29.63968-25.54368-1.09056-51.16928-0.34816-76.75904-0.34816-108.33408-0.01024-216.67328 0.2304-325.01248-0.24064-17.6896-0.07168-32.0768 3.3024-40.25856 20.45952l-0.49152 118.27712z m397.31712 371.05152c95.62112-1.4592 176.68096 78.74048 176.61952 174.74048-0.06656 95.11936-78.13632 173.06112-174.57664 174.28992-94.39232 1.19808-174.30016-78.18752-174.68416-173.5424-0.37888-95.80032 76.57472-174.01856 172.64128-175.488z"  horiz-adv-x="1024" />

    
    <glyph glyph-name="chengjipaiming" unicode="&#59568;" d="M846.913672 831.818436l-1.128897 0.180623H196.187268a86.910026 86.910026 0 0 1-30.69095-7.525981C143.580662 814.614044 131.493937 796.657053 131.493937 773.808176V-2.602108a76.162926 76.162926 0 0 1 6.487395-29.291117c9.272008-20.48572 27.198895-31.819847 50.499331-32.000471 12.041569-0.090312 64.512707-0.090312 134.715057-0.090311 83.10188 0 191.159912 0.090312 286.228101 0.225779h224.981671c28.598727 0 43.108818 13.546765 50.092928 25.09162A54.593465 54.593465 0 0 1 892.581323-13.289001V777.932413c0 37.088033-29.863092 51.462657-45.667651 53.886023z m0-826.608576a25.452867 25.452867 0 0 0-3.461951-10.039658c-4.289809-6.938954-11.906102-10.295542-23.375697-10.295542h-0.090312c-20.3352 0.090312-110.436242 0-214.731284 0-167.904632-0.090312-376.99143-0.180624-402.037894 0-10.792256 0.090312-17.791419 4.289809-22.081228 13.170466a44.689274 44.689274 0 0 0-3.898458 16.707678V756.378004c0 6.36698 1.505196 15.638988 15.051962 21.94576a58.70265 58.70265 0 0 0 19.221354 4.982199h616.934751c4.515588-1.083741 18.423601-5.644486 18.423601-23.029501zM636.396937 362.979936c-22.397319-30.991989-42.612103-76.388705-38.397554-115.313078 3.22112-29.291117 25.09162-58.597287 56.580323-52.817334 82.439594 14.73587 132.607782 111.459776 125.443048 177.613147-1.505196 13.802649-5.117667 30.826417-21.072746 34.002382 2.197586 2.694301 10.400905 3.582367 9.994503 7.390513-0.812806 7.616293-19.49229 22.322059-33.611031 20.801811-22.427423-2.408314-72.234364-34.980759-98.936543-71.677441z m79.158266 16.451794c0.180624-2.107275 1.38478-6.096044 4.124237-5.779954 3.401743 0.406403 11.018036 14.103688 19.973953 15.051962 9.5881 0.978378 14.525143-11.695374 15.277741-18.905264 2.37821-22.848878-22.442475-66.936073-35.83872-85.525246l-30.374859-34.724875c-7.119578-8.113007-27.816025-23.601476-38.081463-24.685217-9.5881-0.978378-13.215622 18.814952-13.546765 25.407711-1.730976 35.748409 20.274992 87.63252 78.465876 129.160883zM287.387103 147.812144a4.350017 4.350017 0 0 1 4.304861 5.283239c-0.481663 4.124237-1.881495 7.796916-2.287898 12.041569-2.498626 23.119813 20.530876 74.672782 30.420014 96.332555 44.222663 97.83775 44.312975 96.814217 43.19913 106.793667-0.587027 5.207979-9.407476 22.999397-18.408549 22.09628-9.5881-0.993429-46.104158-28.31274-56.730843-36.124708-7.796916-5.689641-14.284312-9.5881-13.877909-19.56755-0.090312-2.107275-0.180624-8.007644 3.582367-7.616293a46.043951 46.043951 0 0 1 8.910761 4.515589l31.398392 15.909923 0.812806-0.587026a1063.97801 1063.97801 0 0 1-53.088269-98.515089c-7.616293-16.557158-18.273081-56.32444-16.481898-73.604092 1.926651-17.926886 17.023769-18.694536 30.91673-24.519646 1.565404-1.053637 5.629434-2.664197 7.330305-2.438418zM574.292543 392.918287c-0.797754 7.616293-19.477238 22.307007-33.595978 20.771707-22.397319-2.408314-72.249416-34.980759-98.921492-71.677441-22.397319-30.991989-42.597051-76.373653-38.397554-115.313078 3.191016-29.291117 25.09162-58.597287 56.595376-52.817333 82.33423 14.690715 132.457262 111.384516 125.443048 177.613147-1.505196 13.802649-5.117667 30.781261-21.072747 34.002381 2.167482 2.709353 10.35575 3.612471 9.949347 7.420617z m-49.806941-129.612441l-30.420014-34.619512c-7.074422-8.113007-27.785921-23.601476-38.081463-24.685217-9.5881-0.978378-13.215622 18.814952-13.546766 25.407711-1.791183 35.703253 20.199732 87.587365 78.390616 129.115727 0.180624-2.107275 1.309521-6.096044 4.124238-5.779953 3.416795 0.391351 11.018036 14.103688 19.989005 15.051961 9.5881 0.978378 14.510091-11.695374 15.277741-18.905263 2.468522-22.909086-22.427423-67.086593-35.733357-85.585454zM662.195999 159.492467c13.622025 2.197586 38.713645 5.433758 38.713645 5.433758-260.699975-15.909923-444.198439-94.089812-441.022475-92.61472 0 0-10.310594-6.713175 0-11.364231 5.207979-2.423366 35.387162 11.364231 35.387162 11.364231 207.114992 73.528832 445.899311 92.61472 445.89931 92.61472-28.267584-1.128897-78.977643-5.433758-78.977642-5.433758zM330.089518 630.709177h366.921668a26.882803 26.882803 0 1 1 0 53.765607H330.089518a26.882803 26.882803 0 0 1 0-53.765607zM741.218797 144.184622C454.810072 126.844762 300.211374 51.584954 300.211374 51.584954s-10.310594-6.713175 0-11.364231C305.404301 37.782305 335.658744 51.584954 335.658744 51.584954c214.595817 76.208082 215.498934 74.191119 445.89931 92.61472-28.31274-1.128897-78.887331-5.433758-78.88733-5.433758 13.42635 2.137379 38.548074 5.418706 38.548073 5.418706zM330.089518 508.983963h366.921668a26.882803 26.882803 0 1 1 0 53.765607H330.089518a26.882803 26.882803 0 0 1 0-53.765607z"  horiz-adv-x="1024" />

    
    <glyph glyph-name="chengjipaiming1" unicode="&#59253;" d="M503.744 586.666667c-182.613333 0-330.666667-148.053333-330.666667-330.666667 0-182.613333 148.053333-330.666667 330.666667-330.666667 182.613333 0 330.666667 148.053333 330.666667 330.666667 0 182.613333-148.053333 330.666667-330.666667 330.666667z m0-64c147.264 0 266.666667-119.381333 266.666667-266.666667s-119.402667-266.666667-266.666667-266.666667c-147.285333 0-266.666667 119.381333-266.666667 266.666667s119.381333 266.666667 266.666667 266.666667zM503.744 416a160 160 0 1 1 0-320 160 160 0 0 1 0 320z m0-64a96 96 0 1 0 0-192 96 96 0 0 0 0 192zM815.466667 864a53.333333 53.333333 0 0 0 51.797333-66.069333l-1.194667-4.138667-117.717333-353.152-60.714667 20.245333L800.64 800h-145.856l-92.8-278.4-60.693333 20.245333L596.522667 827.52a53.333333 53.333333 0 0 0 46.784 36.330667l3.797333 0.128h168.362667zM193.642667 864a53.333333 53.333333 0 0 1-51.797334-66.069333l1.194667-4.138667 117.717333-353.109333 60.714667 20.224L208.469333 800h145.856l92.16-276.544 60.736 20.224L412.586667 827.541333a53.333333 53.333333 0 0 1-46.784 36.330667l-3.797334 0.128H193.642667z"  horiz-adv-x="1024" />

    
    <glyph glyph-name="weidutongzhi1" unicode="&#59077;" d="M1060.4375 130.875L744.03125 447.28125l309.37500027 203.90625027c14.06250027-21.09375 21.09375-42.1875 21.09375-77.34375027v-386.71874973c0-14.06250027-7.03124973-35.15625027-14.06250027-56.25000027zM582.31249973 398.06250027l435.93750027 281.24999973c-21.09375 7.03124973-21.09375 21.09375-70.31249973 21.09375H209.65625027c-35.15625027 0-49.21874973-7.03124973-70.31250054-14.06250027L582.31249973 398.06250027z m119.53125027 35.15624946L603.40624973 355.87500027c-14.06250027-7.03124973-28.12499973-7.03124973-42.1875 0L455.74999973 433.21874973 132.3125 102.75000026999999c21.09375-14.06250027 21.09375-35.15625027 84.375-35.15625027h738.28125c77.34375027 0 63.28125 14.06250027 84.375 35.15625027L701.84375 433.21874973zM118.24999973 651.18750027c-14.06250027-21.09375-28.12499973-35.15625027-28.12499973-77.34375027v-386.71874973c0-14.06250027 7.03124973-35.15625027 14.06250027-56.25000027l323.43749973 316.40625L118.24999973 651.18750027z"  horiz-adv-x="1194" />

    
    <glyph glyph-name="yidutongzhi" unicode="&#59078;" d="M624.49999973 348.84374973c-21.09375 14.06250027-56.25000027 14.06250027-77.34374946 0l-77.34375027-49.21874973-372.65625027-260.15624973c7.03124973-42.1875 56.25000027-77.34375027 119.53125027-77.34375027h738.28125c56.25000027 0 105.46875 35.15625027 119.53125027 77.34375027L694.81250027 299.625l-70.31250054 49.21874973z m-77.34374946 56.25000027c21.09375 14.06250027 49.21874973 14.06250027 77.34374946 0l77.34375027-49.21874973 316.40625 217.96874973L645.59374973 791.81249973c-42.1875 21.09375-84.375 21.09375-126.5625 0L153.40625 566.81250027l323.43749973-217.96875054 70.31250054 56.25000027z m506.25 133.59374973l-316.40625-210.9375 337.5-239.06249973V482.43750027c0 21.09375-7.03124973 35.15625027-21.09375 56.24999946zM111.21875 538.68749973c-14.06250027-14.06250027-21.09375-35.15625027-21.09375-56.24999946v-393.75000027l337.5 239.06249973-316.40625 210.9375z"  horiz-adv-x="1194" />

    
    <glyph glyph-name="weidutongzhi" unicode="&#58949;" d="M856.848 113.6l-73.6 129.488V504.08c0 100-75.152 208.224-184.752 247.888-5.328 52.992-40.752 91.648-87.152 91.648-46.336 0-81.888-38.656-87.152-91.648-109.52-39.664-184.688-147.888-184.688-247.888v-261.008l-77.168-135.84a28.944 28.944 0 0 1 0.128-28.896c5.136-8.912 14.688-14.304 24.992-14.304h183.68c13.488-65.184 71.216-114.304 140.224-114.304 69.088 0 126.768 49.104 140.208 114.304h185.008c16 0 28.944 12.88 28.944 28.896 0 8.096-3.264 15.44-8.672 20.672M511.344 785.664c10.432 0 18.848-7.904 24.24-19.712-8.032 0.816-15.824 2.688-24.24 2.688s-16.208-1.872-24.24-2.688c5.408 11.808 13.824 19.712 24.24 19.712m0-778.016c-36.736 0-67.44 23.632-79.376 56.4h158.752c-11.936-32.784-42.576-56.4-79.376-56.4m-274.16 114.224l56.384 99.28c2.512 4.272 3.888 9.296 3.888 14.336V504.08c0 97.552 91.424 206.672 213.888 206.672s214-109.104 214-206.672v-268.608c0-5.024 1.328-10.064 3.76-14.336l56.464-99.28H237.184v0.016zM718.128 645.296m-97.408 0a97.408 97.408 0 1 1 194.816 0 97.408 97.408 0 1 1-194.816 0Z"  horiz-adv-x="1024" />

    
    <glyph glyph-name="tongzhitonggao1" unicode="&#58948;" d="M897.6 84.8c-42.4 33.6-76 99.2-99.2 194.4-31.2 128.8-32 264.8-32 265.6 0 111.2-72 205.6-171.2 240 0.8 4.8 1.6 9.6 1.6 14.4 0.8 46.4-36.8 84.8-83.2 85.6S428 848 427.2 801.6v-1.6c0-4.8 0.8-9.6 1.6-14.4-100-34.4-171.2-128.8-171.2-240 0-1.6-0.8-136.8-32-265.6-23.2-95.2-56.8-160-99.2-194.4-12-9.6-13.6-27.2-4-39.2 4-4.8 9.6-8 15.2-9.6 7.2-1.6 87.2-20 207.2-30.4 12-68.8 82.4-121.6 167.2-121.6 84.8 0 155.2 52 167.2 120 67.2 5.6 136.8 16 207.2 32 15.2 3.2 24 18.4 20.8 33.6-1.6 4.8-4.8 10.4-9.6 14.4zM483.2 799.2c0 16 12.8 28.8 28.8 28.8s28.8-12.8 28.8-28.8c0-0.8 0-1.6-0.8-2.4-19.2 2.4-38.4 2.4-56.8 0v2.4zM512-60.8c-52 0-95.2 26.4-108.8 61.6 37.6-2.4 78.4-4 121.6-4 31.2 0 63.2 0.8 96 2.4-15.2-34.4-57.6-60-108.8-60z m-312.8 141.6c33.6 44 60.8 105.6 80 184.8 33.6 135.2 33.6 273.6 33.6 279.2C312.8 654.4 402.4 744 512 744s199.2-89.6 199.2-199.2c0-5.6 0.8-144 33.6-279.2 19.2-80 46.4-141.6 80.8-185.6-264-50.4-521.6-17.6-626.4 0.8z"  horiz-adv-x="1024" />

    
    <glyph glyph-name="tongzhitonggao" unicode="&#58947;" d="M1278.85268693 510.66476731h-121.49762708v-228.75070495c0-71.50205142-57.25750223-121.49762708-121.49762706-121.49762706H663.96297229v-143.00410286c0-42.87330032 35.75102646-78.62432676 78.62432675-78.62432674h293.13048101c35.75102646-28.62875113 64.37977756-49.99557565 100.13080403-78.62432532 14.24454919-7.12227534 21.50647579-21.50647579 35.75102497-28.6287511 7.12227534-7.12227534 21.50647579-14.24454919 28.62875112-7.12227533s14.24454919 14.24454919 14.24454921 28.62875112v85.74660063h57.25750222c42.87330032 0 78.62432676 35.75102646 78.62432674 78.62432674v414.76776083c7.12227534 42.73364759-28.62875113 78.48467404-71.50205141 78.48467404zM392.19931578 260.40758658000004v-164.51058009l200.26160506 150.12637818v64.37977757L392.19931578 260.40758658000004z m0 0M363.57056466 260.40758658000004v-164.51058009c0-14.24454919 7.12227534-21.50647579 14.2445492-28.62875111 14.24454919-7.12227534 21.50647579 0 28.62875113 7.12227534 35.75102646 28.62875113 64.37977756 49.99557565 93.00852866 78.62432528 21.50647579 14.24454919 42.87330032 35.75102646 64.37977608 49.99557564 14.24454919 7.12227534 21.50647579 14.24454919 35.75102646 28.62875111 14.24454919 7.12227534 7.12227534 28.62875113 7.12227386 42.87330033v35.75102642c0 21.50647579-21.50647579 28.62875113-35.75102498 28.62875113-42.87330032-21.50647579-100.13080253-35.75102646-157.24865353-49.99557564-7.12227534 0-14.24454919-7.12227534-28.6287511-7.12227386-14.24454919 0-21.50647579-14.24454919-21.50647578-28.62875113 7.12227534-14.24454919 21.50647579-21.50647579 35.75102497-21.50647725 57.25750223 14.24454919 121.49762708 28.62875113 178.75512931 42.87330033 7.12227534 0 14.24454919 7.12227534 28.62875111 7.12227533-14.24454919 7.12227534-28.62875113 21.50647579-42.87330032 28.62875109v-64.37977755c0 7.12227534 7.12227534 14.24454919 7.12227534 21.50647724l-64.37977756-49.99557563-107.25307788-85.74660063-21.36682306-21.36682454c14.24454919-7.12227534 28.62875113-14.24454919 49.99557417-21.50647724V260.40758658000004c0 14.24454919-14.24454919 28.62875113-28.62875111 28.62875112-21.36682454-7.12227534-35.75102646-14.24454919-35.75102497-28.62875112z m0 0M1007.08902896 946.79935266h-715.02051572c-42.87330032 0-78.62432676-35.75102646-78.62432675-85.7466021v-557.77186366c0-42.87330032 35.75102646-78.62432676 78.62432675-78.62432676h715.02051572c42.87330032 0 78.62432676 35.75102646 78.62432675 78.62432676V861.05275056c0 49.99557565-35.75102646 85.74660062-78.62432675 85.7466021zM506.5746675 589.28909408c0-42.87330032-35.75102646-78.62432676-78.62432675-78.62432677-42.87330032 0-78.62432676 35.75102646-78.62432528 78.62432677 0 42.87330032 35.75102646 78.62432676 78.62432527 78.62432674 42.87330032 0.13965271 78.62432676-35.61137374 78.62432677-78.62432674z m214.50615579 0c0-42.87330032-35.75102646-78.62432676-78.62432679-78.62432677-42.87330032 0-78.62432676 35.75102646-78.62432677 78.62432677 0 42.87330032 35.75102646 78.62432676 78.62432677 78.62432674 42.87330032 0.13965271 78.62432676-35.61137374 78.62432679-78.62432674z m221.62842958 0c0-42.87330032-35.75102646-78.62432676-78.62432676-78.62432677-42.87330032 0-78.62432676 35.75102646-78.62432677 78.62432677 0 42.87330032 35.75102646 78.62432676 78.62432677 78.62432674 42.87330032 0.13965271 78.62432676-35.61137374 78.62432676-78.62432674z m0 0"  horiz-adv-x="1820" />

    
    <glyph glyph-name="jihua" unicode="&#58960;" d="M641.791 532.673c-154.333 0-279.448-125.113-279.448-279.446 0-154.337 125.114-279.448 279.448-279.448 154.337 0 279.448 125.111 279.448 279.448-0.001 154.334-125.111 279.446-279.448 279.446z m0-521.636c-133.755 0-242.186 108.431-242.186 242.19 0 133.755 108.431 242.186 242.186 242.186 133.759 0 242.188-108.431 242.188-242.186 0-133.759-108.43-242.19-242.188-242.19zM250.565 365.004c-30.87 0-55.891-25.02-55.891-55.89 0-30.866 25.022-55.888 55.891-55.888 30.866 0 55.888 25.022 55.888 55.888 0 30.87-25.022 55.89-55.888 55.89z m0-74.519c-10.289 0-18.632 8.341-18.632 18.63 0 10.291 8.342 18.632 18.632 18.632 10.287 0 18.628-8.341 18.628-18.632 0-10.289-8.34-18.63-18.628-18.63zM138.786 104.186c-20.579 0-37.262 16.681-37.262 37.26V700.344c0 20.577 16.683 37.258 37.262 37.258h37.26c0.001-30.867 25.02-55.888 55.888-55.888s55.889 25.021 55.89 55.888h74.52c0.001-30.867 25.024-55.888 55.89-55.888s55.889 25.021 55.89 55.888h74.52c0.001-30.867 25.024-55.888 55.89-55.888 30.867 0 55.89 25.021 55.891 55.888h37.26c20.577 0 37.258-16.681 37.258-37.258v-144.343a314.578 314.578 0 0 0 37.26-14.078V700.344c0 41.153-33.362 74.518-74.518 74.518h-37.26c0 30.868-25.024 55.89-55.891 55.89-30.866 0-55.89-25.022-55.89-55.89h-74.519c0 30.868-25.024 55.89-55.89 55.89s-55.89-25.022-55.89-55.89h-74.519c0 30.868-25.022 55.89-55.89 55.89s-55.888-25.022-55.888-55.89h-37.26c-41.157 0-74.521-33.364-74.521-74.518v-558.898c0-41.155 33.364-74.519 74.521-74.519h246.888a316.74 316.74 0 0 0-23.38 37.26h-223.51z m447.117 670.675c0 10.289 8.339 18.632 18.628 18.632s18.63-8.342 18.63-18.632v-37.258c0-10.291-8.341-18.632-18.63-18.632s-18.628 8.341-18.628 18.632v37.258z m-186.301 0c0 10.289 8.342 18.632 18.63 18.632 10.289 0 18.63-8.342 18.63-18.632v-37.258c0-10.291-8.341-18.632-18.63-18.632-10.287 0-18.63 8.341-18.63 18.632v37.258z m-186.298 0c0 10.289 8.342 18.632 18.63 18.632 10.291 0 18.632-8.342 18.632-18.632v-37.258c0-10.291-8.341-18.632-18.632-18.632-10.287 0-18.63 8.341-18.63 18.632v37.258z m596.157-503.004H694.487c-5.613 15.875-18.189 28.452-34.065 34.065V420.894c0 10.289-8.342 18.63-18.632 18.63-10.287 0-18.628-8.341-18.628-18.63v-114.971c-21.705-7.673-37.26-28.363-37.26-52.695 0-30.868 25.022-55.891 55.888-55.891 24.334 0 45.024 15.556 52.697 37.262h114.974c10.287 0 18.628 8.341 18.628 18.63 0 10.287-8.34 18.628-18.628 18.628z m-167.67-37.26c-10.287 0-18.628 8.341-18.628 18.63s8.341 18.63 18.628 18.63c10.289 0 18.632-8.341 18.632-18.63-0.001-10.289-8.343-18.63-18.632-18.63zM250.565 569.933c-30.87 0-55.891-25.022-55.891-55.89 0-30.866 25.022-55.888 55.891-55.888 30.866 0 55.888 25.022 55.888 55.888 0 30.868-25.022 55.89-55.888 55.89z m0-74.52c-10.289 0-18.632 8.342-18.632 18.63 0 10.291 8.342 18.632 18.632 18.632 10.287 0 18.628-8.341 18.628-18.632 0-10.287-8.34-18.63-18.628-18.63z m167.667 74.52c-30.866 0-55.89-25.022-55.89-55.89 0-25.329 16.856-46.71 39.958-53.57a318.338 318.338 0 0 0 71.298 61.133c-3.693 27.288-27.066 48.327-55.366 48.327z m0-74.52c-10.287 0-18.63 8.342-18.63 18.63 0 10.291 8.342 18.632 18.63 18.632 10.289 0 18.63-8.341 18.63-18.632 0-10.287-8.341-18.63-18.63-18.63z"  horiz-adv-x="1024" />

    
    <glyph glyph-name="pingfenbiaozhun" unicode="&#58942;" d="M913.066667-5.688889h-79.644445c-59.733333 0-110.933333 48.355556-110.933333 110.933333V770.844444c0 59.733333 48.355556 110.933333 110.933333 110.933334h79.644445C972.8 881.777778 1024 833.422222 1024 770.844444v-668.444444c0-59.733333-48.355556-108.088889-110.933333-108.088889z m79.644444 776.533333c0 45.511111-31.288889 79.644444-79.644444 79.644445h-79.644445c-56.888889 0-79.644444-54.044444-79.644444-79.644445v-668.444444c0-42.666667 34.133333-79.644444 76.8-79.644444h82.488889c36.977778 0 79.644444 28.444444 79.644444 79.644444V770.844444zM864.711111 782.222222H816.355556l2.844444-96.711111c0-8.533333-5.688889-17.066667-14.222222-17.066667s-11.377778 8.533333-11.377778 17.066667V782.222222c0 31.288889 25.6 31.288889 34.133333 31.288889h36.977778c8.533333 0 17.066667-8.533333 14.222222-17.066667 0-8.533333-5.688889-14.222222-14.222222-14.222222z m-48.355555-130.844444c2.844444-2.844444 5.688889-5.688889 5.688888-11.377778 0-8.533333-5.688889-14.222222-14.222222-14.222222s-14.222222 5.688889-14.222222 14.222222c0 2.844444 2.844444 8.533333 5.688889 11.377778 2.844444 5.688889 11.377778 5.688889 17.066667 0z m-253.155556-657.066667H483.555556c-59.733333 0-110.933333 48.355556-110.933334 110.933333V600.177778c0 59.733333 48.355556 110.933333 110.933334 110.933333h79.644444c59.733333 0 110.933333-48.355556 110.933333-110.933333v-494.933334c0-62.577778-51.2-110.933333-110.933333-110.933333z m79.644444 605.866667c0 45.511111-31.288889 79.644444-79.644444 79.644444H483.555556c-56.888889 0-79.644444-54.044444-79.644445-79.644444v-494.933334c0-42.666667 34.133333-79.644444 76.8-79.644444h82.488889c36.977778 0 79.644444 28.444444 79.644444 79.644444V600.177778zM199.111111-5.688889H116.622222C56.888889-5.688889 5.688889 42.666667 5.688889 105.244444V423.822222c0 59.733333 48.355556 110.933333 110.933333 110.933334H199.111111c59.733333 0 110.933333-48.355556 110.933333-110.933334v-321.422222c-2.844444-59.733333-51.2-108.088889-110.933333-108.088889z m79.644445 429.511111c0 45.511111-31.288889 79.644444-79.644445 79.644445H116.622222c-56.888889 0-79.644444-54.044444-79.644444-79.644445v-321.422222c0-42.666667 34.133333-79.644444 76.8-79.644444h85.333333c36.977778 0 79.644444 28.444444 79.644445 79.644444V423.822222z m722.488888-506.311111c8.533333 0 14.222222-5.688889 14.222223-14.222222s-5.688889-14.222222-14.222223-14.222222H14.222222c-8.533333-2.844444-14.222222 2.844444-14.222222 11.377777s5.688889 14.222222 14.222222 14.222223l987.022222 2.844444z"  horiz-adv-x="1024" />

    
    <glyph glyph-name="renwu" unicode="&#58963;" d="M840.454 833.558h-638.605c-76.445 0-139.409-63.68-139.409-141.007v-614.048c0-77.326 62.963-141.007 139.408-141.007h638.605c76.454 0 139.408 63.68 139.408 141.007v614.048c0 77.326-58.454 141.007-139.408 141.007zM912.409 73.95c0-40.931-31.473-72.772-71.954-72.772h-638.605c-40.473 0-71.954 31.84-71.954 72.772v618.603c0 40.931 31.481 72.772 71.954 72.772h638.605c40.481 0 71.954-31.84 71.954-72.772v-618.603zM399.73 610.68l-98.936-100.065-44.973 45.477c-13.5 13.647-35.981 13.647-44.973 0-13.5-13.638-13.5-36.386 0-45.477l71.954-72.781c4.5-4.546 13.492-9.092 26.981-9.092 13.5 0 13.5 4.546 26.981 9.092l121.426 122.813c13.5 13.647 13.5 36.386 0 45.487-26.981 13.638-44.973 13.638-58.463 4.546zM813.473 556.092h-310.308c-22.481 0-31.481-13.638-31.481-31.84 0-22.739 13.5-31.84 31.481-31.84h310.316c22.481 0 31.473 13.647 31.473 31.84 0 18.202-13.5 31.84-31.481 31.84zM318.775 351.416c-58.463 0-103.436-45.487-103.436-104.62 0-59.125 44.973-104.611 103.436-104.611 58.473 0 103.436 45.487 103.436 104.611 0 63.68-49.463 104.62-103.436 104.62zM318.775 214.957c-22.481 0-35.973 13.647-35.973 36.386 0 22.747 13.492 36.395 35.973 36.395 22.492 0 35.981-13.647 35.981-36.395 0-22.739-17.992-36.386-35.981-36.386zM813.473 283.192h-310.308c-22.481 0-31.481-13.647-31.481-31.849 0-18.184 13.5-31.84 31.481-31.84h310.316c22.481 0 31.473 13.647 31.473 31.84 0 18.202-13.5 31.84-31.481 31.84z"  horiz-adv-x="1044" />

    
    <glyph glyph-name="kemuguanli-" unicode="&#58943;" d="M329-27.5H171c-11.7 0-21.1 9.5-21.1 21.1V574.3c0 11.7 9.5 21.1 21.1 21.1h158c11.7 0 21.1-9.5 21.1-21.1v-580.6c0-11.7-9.5-21.2-21.1-21.2z m-139.1 40h120.2V555.4H189.9v-542.9zM739.8-27.5c-16.4 0-31.3 9-39 23.4-0.1 0.1-0.1 0.2-0.2 0.3L483.6 475c-11.3 21.5-3.1 48.2 18.3 59.6l102.3 50.1c6.4 3.4 13.6 5.2 20.8 5.2 16.4 0 31.3-9 39-23.4 0.1-0.1 0.1-0.2 0.2-0.3l219-473.3c11.3-21.5 3.1-48.2-18.3-59.6l-104.3-55.6c-6.4-3.4-13.6-5.2-20.8-5.2z m-3.6 42.2c0.9-1.6 2.5-2.1 3.7-2.1 0.7 0 1.3 0.2 1.9 0.5l104.3 55.6c2 1.1 2.8 3.6 1.7 5.7-0.1 0.1-0.1 0.2-0.2 0.3l-219 473.2c-0.9 1.6-2.5 2.1-3.7 2.1-0.7 0-1.3-0.2-1.9-0.5l-102.3-50.1c-2-1.1-2.8-3.6-1.7-5.7 0.1-0.1 0.1-0.2 0.2-0.3l217-478.7zM494.4-27.5H336.5c-11.7 0-21.1 9.5-21.1 21.1V767.9c0 11.7 9.5 21.1 21.1 21.1h157.9c11.7 0 21.1-9.5 21.1-21.1v-774.2c0-11.7-9.4-21.2-21.1-21.2z m-139.1 40h120.2V749H355.3v-736.5zM985.4-42.5H52.8c-11 0-20 9-20 20s9 20 20 20h932.6c11 0 20-9 20-20s-9-20-20-20z"  horiz-adv-x="1024" />

    
    <glyph glyph-name="minzu" unicode="&#59109;" d="M94263.39814 896H95925.34235V-128h-1661.94421zM95320.784176 614.776534H95319.168108C95318.769068 616.219483 95317.480196 617.278107 95315.952419 617.278107 95314.423777 617.278107 95313.134039 616.218617 95312.735865 614.776534H95311.491138c-0.205146 0-0.372206-0.138495-0.372206-0.31248 0-0.172254 0.165329-0.313346 0.372206-0.313346H95312.621606c-0.008656-0.103872-0.014715-0.206877-0.014715-0.313345 0-1.45247 0.882908-2.695466 2.125038-3.197512a5.20656 5.20656 0 0 1-3.912494-4.239689c-0.019909-0.121183-0.038952-0.243232-0.048473-0.367878 0-0.002597 0-0.005194-0.001731-0.006925h10.36378a5.196172 5.196172 0 0 1-2.189958 3.812085l-0.079635 0.056264a5.193576 5.193576 0 0 1-1.691374 0.747874c1.24213 0.503777 2.125038 1.745041 2.125038 3.197512 0 0.104737-0.006059 0.209474-0.014715 0.313346h1.501809c0.204281 0 0.372206 0.139361 0.372206 0.31248 0 0.173119-0.166194 0.311615-0.372206 0.311614zM95315.952419 616.654012c1.130468 0 2.09128-0.78423 2.450502-1.874881H95313.501052C95313.860274 615.867185 95314.821085 616.653146 95315.952419 616.653146zM95316.239797 608.01623a8.74425 8.74425 0 0 0-2.296426 1.659347 4.350485 4.350485 0 0 0 4.509755-0.302093 5.262823 5.262823 0 0 1-0.288243 0.184372A8.57719 8.57719 0 0 0 95316.239797 608.01623zM95313.353035 609.303371a9.357958 9.357958 0 0 1 2.202941-1.652423 10.12401 10.12401 0 0 0-3.934999-0.986779 4.585927 4.585927 0 0 0 1.732058 2.640068zM95311.652139 606.581072c0.010387 0.025968 0.010387 0.051936 0.020774 0.077903-0.010387-0.025968-0.010387-0.051936-0.020774-0.077903z m3.170678 0.069248c1.548551 0.542729 2.895418 1.411787 3.914224 2.507631a4.585927 4.585927 0 0 0 1.549417-2.507631H95314.822817z m3.646755 2.711912z m0.084829 4.476862c0-1.550282-1.167689-2.813187-2.601982-2.813187-1.435158 0-2.602847 1.262904-2.602847 2.813187 0 0.106468 0.006925 0.209474 0.017312 0.313346h5.17107c0.009522-0.103872 0.016446-0.207743 0.016447-0.313346z"  horiz-adv-x="165809" />

    
    <glyph glyph-name="shuiziyuanguanli" unicode="&#59083;" d="M512-64c-177.664 0-320 157.184-320 349.184 0 122.368 91.136 281.088 271.872 480.256 1.536 1.536 2.56 3.072 4.096 4.096 26.112 23.552 66.56 22.016 90.624-4.096 181.76-199.168 273.408-357.888 273.408-480.256 0-192-142.336-349.184-320-349.184z m0 47.104c146.944 0 267.776 133.12 267.776 298.496 0 106.496-89.088 260.096-268.288 457.216C332.8 542.208 244.224 388.096 244.224 281.6c0-165.376 120.832-298.496 267.776-298.496zM143.872 512c-44.032 0-79.872 36.864-79.872 82.944 0 31.232 18.432 59.904 47.104 72.704 39.936 17.92 87.04 0 104.96-39.936 5.12-11.776 8.192-22.528 8.192-32.256 0-46.592-35.84-83.456-80.384-83.456z m704 32.256c-61.952 0-112.128 49.664-112.128 110.592 0 40.96 22.528 78.336 58.368 97.28 53.76 29.184 120.832 8.704 150.016-45.056 10.752-19.456 15.872-37.376 15.872-52.224 0-61.44-50.176-110.592-112.128-110.592z m-335.872-512c-123.904 0-224.256 115.2-224.256 257.536s60.928 100.864 149.504 25.088 209.408 19.968 298.496-25.088c0.512-142.336-99.84-257.536-223.744-257.536z"  horiz-adv-x="1024" />

    
    <glyph glyph-name="lianzhengjianshekaohe" unicode="&#58985;" d="M744.136 423.05l-260.34-260.338-117.152 117.152c-13.017 13.017-34.712 13.017-47.729 0s-13.017-34.711 0-47.728l143.187-143.187c4.339-4.339 13.017-8.678 21.695-8.678s17.356 4.34 21.695 8.678l282.033 282.034c13.017 13.017 13.017 34.712 0 47.729-8.678 17.356-30.372 17.356-43.39 4.339zM856.95 700.746H735.457V722.44c0 17.356-13.017 34.712-34.712 34.712h-47.73C653.017 835.254 587.933 896 514.17 896S370.983 835.254 370.983 757.153h-47.729c-17.356 0-30.373-17.356-30.373-34.712v-26.034h-125.83c-60.746 0-108.475-52.068-108.475-117.153v-590.101c0-65.085 47.73-117.153 108.475-117.153h685.56c60.745 0 108.474 52.068 108.474 117.153v594.44c4.339 65.085-43.39 117.153-104.136 117.153z m-498.984-8.678h52.068c8.678 0 21.695 4.339 26.034 13.017 4.339 8.678 8.678 17.356 4.339 30.373-4.34 4.339-4.34 13.017-4.34 21.695 0 43.39 34.713 73.762 73.764 73.762s73.762-34.712 73.762-73.762c0-8.678 0-13.017-4.339-21.695s0-21.695 4.34-30.373c4.338-8.678 17.355-13.017 26.033-13.017h52.068v-130.17H357.966v130.17zM900.34-6.508c0-30.373-21.695-52.068-43.39-52.068H167.051c-26.034 0-43.39 21.695-43.39 52.068V583.593c0 30.373 21.695 52.068 43.39 52.068h121.491v-108.475c0-17.355 13.017-34.711 34.712-34.711h377.492c17.356 0 34.712 13.017 34.712 34.711V635.661h121.491c26.034 0 43.39-21.695 43.39-52.068v-590.101z"  horiz-adv-x="1024" />

    
    <glyph glyph-name="zaixianxuexijingguo" unicode="&#58939;" d="M950.857143 896H658.285714a73.142857 73.142857 0 0 1-54.125714-24.868571A181.394286 181.394286 0 0 1 515.657143 749.714286H512A181.394286 181.394286 0 0 1 419.84 871.131429 73.142857 73.142857 0 0 1 365.714286 896H73.142857a73.142857 73.142857 0 0 1-73.142857-73.142857v-658.285714a73.142857 73.142857 0 0 1 73.142857-73.142858h292.571429a73.142857 73.142857 0 0 1 0 146.285715H146.285714V749.714286h146.285715a146.285714 146.285714 0 0 0 146.285714-146.285715 139.702857 139.702857 0 0 0-5.851429-39.497142H438.857143V384a73.142857 73.142857 0 0 1 146.285714 0V567.588571h5.851429A139.702857 139.702857 0 0 0 585.142857 603.428571a146.285714 146.285714 0 0 0 146.285714 146.285715h146.285715v-512H658.285714a73.142857 73.142857 0 0 1 0-146.285715h292.571429a73.142857 73.142857 0 0 1 73.142857 73.142858V822.857143a73.142857 73.142857 0 0 1-73.142857 73.142857z m-219.428572-877.714286H292.571429a73.142857 73.142857 0 0 1 0-146.285714h438.857142a73.142857 73.142857 0 0 1 0 146.285714z"  horiz-adv-x="1024" />

    
    <glyph glyph-name="shuzihuayuanicon_xiaofangtongdaodusai" unicode="&#58938;" d="M1009.14144 99.840866c-20.975093 62.319396-104.817762 428.416995-129.832075 507.383748s-75.475713 108.020286-146.739096 108.020286h-101.615237l126.571847-781.617942h197.113941c83.813817 0 75.360307 103.894511 54.50062 166.213908zM197.921785 619.659642C168.579736 532.47019 92.728953 224.566212 57.385777 112.304745 21.580976-1.283895 44.806492-66.373042 132.717232-66.373042h165.89654l125.273527 781.617942h-125.33123c-54.50062-4.154626-71.292235-8.309253-100.634284-95.585258zM472.011721 191.098388l-12.11766-261.51065h138.256734l-11.973403 261.51065H472.011721zM571.174575 517.928998h-84.04463l-12.088809-261.481799h108.135693l-12.002254 261.481799zM562.172884 714.061986H496.247042l-6.058831-130.755325h77.9858l-6.001127 130.755325z"  horiz-adv-x="1069" />

    
    <glyph glyph-name="weixian" unicode="&#58937;" d="M944.256-30.4c-31.04 0-820.8 0-865.792 0-44.288 0-65.856 52.16-46.4 91.968C58.688 115.904 441.216 759.936 465.088 805.824c21.376 41.216 72.384 41.92 93.76 0 32.576-63.808 413.248-704.96 432-742.272C1014.464 16.896 984.576-30.4 944.256-30.4L944.256-30.4zM466.496 563.264l30.464-319.616 45.632 0 30.528 319.616L466.496 563.264 466.496 563.264zM573.12 197.888 466.496 197.888l0-91.264 106.624 0L573.12 197.888 573.12 197.888z"  horiz-adv-x="1024" />

    
    <glyph glyph-name="wuziguanli" unicode="&#58931;" d="M683.754582 896L0 624.293227v-752.293227h341.877291V337.899602h587.474103v-465.899602h359.827889V623.477291zM1223.904382-62.7251h-230.90996V406.438247H274.154582v-465.899602H65.2749V580.232669l616.847809 244.780877 541.781673-244.780877zM397.360956 257.937849H579.314741v-55.483666H397.360956zM397.360956 136.363347H579.314741v-55.483666H397.360956zM397.360956 14.788845H579.314741v-55.483666H397.360956zM708.232669 136.363347h181.953785v-55.483666H708.232669zM708.232669 14.788845h181.953785v-55.483666H708.232669z"  horiz-adv-x="1289" />

    
    <glyph glyph-name="renzhengxiangfu" unicode="&#58924;" d="M561.526 522.644a28.841 28.841 0 0 1-28.898 28.898H205.307a28.846 28.846 0 0 1-28.897-28.898 28.841 28.841 0 0 1 28.897-28.892h327.321a28.836 28.836 0 0 1 28.898 28.892zM455.47 390.754a28.841 28.841 0 0 1-28.897 28.897H205.307a28.846 28.846 0 0 1-28.897-28.898 28.846 28.846 0 0 1 28.897-28.902h221.27a28.846 28.846 0 0 1 28.893 28.902zM205.307 289.151a28.841 28.841 0 0 1-28.897-28.887 28.846 28.846 0 0 1 28.897-28.908h62.187a28.846 28.846 0 0 1 28.898 28.908 28.841 28.841 0 0 1-28.898 28.887h-62.187z m753.72-181.059c0 75.915-51.307 137.421-115.22 177.818 27.914 30.131 55.961 77.107 55.961 118.006 0 89.139-72.489 161.628-161.628 161.628-89.144 0-161.623-72.489-161.623-161.628 0-40.904 27.904-93.246 56.064-123.136-64.169-40.407-115.333-97.02-115.333-172.693 0-23.762 0.686-45.122 24.684-45.122 23.751 0 23.925 21.12 23.925 45.122 0 73.943 98.09 151.634 172.037 151.634 73.959 0 176.814-77.69 176.814-151.634 0-23.762 4.091-46.71 26.85-42.04 23.5 4.844 17.223 18.289 17.47 42.045z m-221.143 184.97c-63.703 0-115.359 51.641-115.359 115.375 0 63.718 52.03 115.374 115.36 115.374 63.344 0 115.373-51.656 115.373-115.374 0-63.734-51.65-115.374-115.374-115.374zM122.819 165.499V615.695c0 26.256 21.437 47.54 47.534 47.54h509.65c26.255 0 47.534-21.443 47.534-47.54v-26.88h54.994v26.88c0 56.546-45.983 102.533-102.528 102.533h-509.65c-56.546 0-102.528-45.982-102.528-102.533V165.5c0-56.545 45.982-102.528 102.528-102.528H477.48v54.984H170.353c-26.25 0-47.534 21.452-47.534 47.544z"  horiz-adv-x="1024" />

    
    <glyph glyph-name="bumen" unicode="&#58900;" d="M890.96986 332.328289 545.11094 332.328289 545.11094 540.61408 684.78875 540.61408 684.78875 747.499987 343.028339 747.499987 343.028339 540.61408 480.338121 540.61408 480.338121 332.328289 133.397522 332.328289 133.397522 279.150136 133.397522 263.370755 133.397522 56.484847 64.284683 56.484847 64.284683-147.499987 270.160836-147.499987 270.160836 56.484847 202.498081 56.484847 202.498081 263.370755 480.338121 263.370755 480.338121 56.484847 409.786454 56.484847 409.786454-147.499987 615.662607-147.499987 615.662607 56.484847 545.11094 56.484847 545.11094 263.370755 822.225426 263.370755 822.225426 56.484847 753.863725 56.484847 753.863725-147.499987 959.714294-147.499987 959.714294 56.484847 890.96986 56.484847Z"  horiz-adv-x="1024" />

    
    <glyph glyph-name="zhuangbei" unicode="&#59046;" d="M887.377366 456.149227c-41.099047-42.464137-91.367941-63.659879-150.805658-63.659879-24.778336 0-48.444339 3.702322-71.203692 11.053754-22.693862 7.345292-43.768853 18.012236-63.147202 32.05609l8.063653-7.997138-6.046716-7.024997c-3.316535-4.028757-9.362228-11.053754-18.012236-21.068851-8.716522-10.015098-17.752316-20.349467-27.055193-31.083949l81.159438-83.170235 2.01796 2.01796c0.645706 1.298576 2.143826 2.990101 4.488221 5.007037 2.337231 2.010797 4.874007 4.355191 7.537673 7.018857 2.669806 2.669806 5.659907 5.333472 9.042957 8.004301 3.316535 2.663666 6.825452 5.327332 10.467399 7.997138 3.709485 2.663666 7.218402 5.200442 10.534937 7.544837 3.38305 2.337231 6.698562 4.355191 10.015098 6.046716 3.38305 1.62501 6.565533 2.597151 9.561773 2.990101 2.990101 0.326435 5.526877 0.12689 7.478322-0.51984 32.768311-12.678764 87.525426-61.455677 164.390048-146.317437l82.198094-95.203292-149.374052-147.356093c-5.980201 4.034896-13.977339 10.015098-24.058952 18.078751-10.015098 7.997138-28.027333 23.219841-54.104245 45.587268-26.076912 22.367427-49.616024 43.436278-70.624501 63.140039-21.068851 19.703761-41.292452 40.579207-60.669778 62.627363-19.377326 22.040992-31.410384 39.727817-36.090986 53.124941-1.951445 4.681626-0.12689 12.359492 5.526877 23.020296 5.659907 10.734482 10.534937 18.73162 14.569834 24.058952l10.015098 12.033058-76.217892 77.190033c-166.993339-190.405561-279.948947-314.349431-338.733794-371.835703-8.650007-8.650007-24.058952-5.659907-46.106084 9.035794-22.040992 14.702863-40.446177 32.908504-55.076386 54.630225-14.763239 21.714558-17.752316 36.930097-9.042957 45.580105 57.426921 55.469336 181.369767 169.403225 371.835703 341.731058L221.414809 622.036371l-89.223091 11.966543L78.087473 753.265158l52.093449 54.17076 118.28294-59.177797 19.058055-85.188194 218.49327-220.444714c10.667967 9.362228 21.002336 18.532075 31.017434 27.567869 10.081613 8.976442 16.587793 14.829753 19.576871 17.493419 2.990101 2.669806 5.526877 5.007037 7.544837 7.024997l10.015098-10.015098c-28.093848 38.108946-42.144866 80.506569-42.144866 127.259382 0 58.139142 20.74958 106.063641 62.167898 143.847176 41.425482 37.715997 95.529727 62.946634 162.378228 75.691913 20.683065 4.621251 50.075489-1.36509 88.178295-18.078751l-130.315998-139.29244 108.275006-101.248985 132.266419 141.309376c20.742417-38.754652 29.065989-72.828702 25.104771-102.228289C952.661232 550.506245 928.46925 498.546849 887.377366 456.149227zM165.813466 2.11543c3.641947 1.691525 6.958482 4.034896 10.015098 7.024997 2.990101 2.990101 5.333472 6.372128 7.024997 10.015098 1.62501 3.709485 2.470261 7.871271 2.470261 12.551874 0 8.710382-3.189645 15.994276-9.495258 22.040992-6.372128 5.986341-13.916964 9.042957-22.566972 9.042957-8.710382 0-16.061814-3.056616-22.040992-9.042957-6.046716-6.046716-9.042957-13.331633-9.042957-22.040992 0-3.316535 0.525979-6.698562 1.49812-10.015098 1.038656-3.38305 2.536776-6.372128 4.554736-9.042957 1.951445-2.663666 4.161786-5.000897 6.499018-7.018857 2.344395-2.01796 5.14109-3.51608 8.523117-4.488221 3.316535-1.038656 6.632047-1.49812 10.007935-1.49812C157.948335-0.355855 162.110121 0.490419 165.813466 2.11543z"  horiz-adv-x="1024" />

    
    <glyph glyph-name="jingwuicon_svg-" unicode="&#58946;" d="M770.94-7h-61.94v257h53.94c14.981 0.17 27.060 12.353 27.060 27.358 0 0.001-0 0.001-0 0.002l0 140.78c-0.040 14.843-12.081 26.86-26.93 26.86-0.046 0-0.091-0-0.137-0l-53.933 0v79.44c3.624 0.733 6.761 2.467 9.204 4.898l32.986-1.338c14.912 0 27 12.088 27 27s-12.088 27-27 27h-26.12c-16.093 73.432-67.467 132.093-135.050 158.090 9.83-3.29 9.98-2.53 9.98-1.71v63.62c-0.102 14.934-12.232 27-27.179 27-0.011 0-0.022-0-0.032-0l-121.588 0c-0.009 0-0.020 0-0.031 0-14.946 0-27.073-12.068-27.169-26.991l-0-63.669c0-0.82 0.14-1.64 0.22-2.44-67.098-29.997-115.542-91.105-127.299-164.468l-24.111 10.568c-14.912 0-27-12.088-27-27s12.088-27 27-27h34.49c2.66-2.126 5.988-3.521 9.625-3.835l-1.925-79.165h-53.94c-0.039 0-0.084 0-0.13 0-14.849 0-26.89-12.017-26.93-26.857l-0-140.784c-0-0-0-0.001-0-0.002 0-15.005 12.079-27.189 27.044-27.358l53.956-0v-257h-61.94c-14.912 0-27-12.088-27-27s12.088-27 27-27h517.88c14.912 0 27 12.088 27 27s-12.088 27-27 27zM736 391v-87h-27v87zM478 775h68v-23.34c-10.22 1.673-21.998 2.628-34 2.628-12.002 0-23.78-0.956-35.264-2.795zM400.26 656.37c29.19 27.269 68.516 44.013 111.752 44.013 74.299 0 137.050-49.444 157.143-117.223l-314.605-1.159c10.852 36.611 33.036 67.048 62.424 88.052zM288 304v87h27v-87zM369-7v535h286v-535zM456 474.1c-14.912 0-27-12.088-27-27v-375.1c0-14.912 12.088-27 27-27s27 12.088 27 27v375.1c0 14.912-12.088 27-27 27zM568 474.1c-14.912 0-27-12.088-27-27v-375.1c0-14.912 12.088-27 27-27s27 12.088 27 27v375.1c0 14.912-12.088 27-27 27z"  horiz-adv-x="1024" />

    
    <glyph glyph-name="jigou" unicode="&#59023;" d="M468.543767 546.854065H126.219191c-34.733059 0-62.99166 28.257577-62.991659 62.99166V764.711861c0 34.733059 28.257577 62.990636 62.991659 62.990637h342.324576c34.717709 0 62.96096-28.257577 62.960961-62.990637v-154.866136c0-34.733059-28.243251-62.99166-62.960961-62.99166zM126.219191 786.77025c-12.163017 0-22.059412-9.895371-22.059411-22.058389v-154.866136c0-12.163017 9.895371-22.059412 22.059411-22.059412h342.324576c12.146645 0 22.028713 9.895371 22.028713 22.059412V764.711861c0 12.163017-9.882068 22.058388-22.028713 22.058389H126.219191zM895.892809 249.36974299999997H553.563116c-34.732036 0-62.990636 28.244274-62.990636 62.959937v95.411024c0 34.715663 28.257577 62.959937 62.990636 62.959937h342.329693c34.717709 0 62.96096-28.244274 62.96096-62.959937v-95.411024c0.001023-34.715663-28.243251-62.959937-62.96096-62.959937zM553.563116 429.769416c-12.163017 0-22.058388-9.882068-22.058388-22.027689v-95.411023c0-12.146645 9.895371-22.027689 22.058388-22.027689h342.329693c12.146645 0 22.028713 9.881045 22.028712 22.027689v95.411023c0 12.145621-9.882068 22.027689-22.028712 22.027689H553.563116zM895.892809-46.073082H553.563116c-34.732036 0-62.990636 28.245298-62.990636 62.963007v95.412046c0 34.718733 28.257577 62.963007 62.990636 62.963007h342.329693c34.717709 0 62.96096-28.245298 62.96096-62.963007v-95.412046c0.001023-34.718733-28.243251-62.963007-62.96096-62.963007zM553.563116 134.33272999999997c-12.163017 0-22.058388-9.883091-22.058388-22.030759v-95.412046c0-12.147668 9.895371-22.030759 22.058388-22.03076h342.329693c12.146645 0 22.028713 9.883091 22.028712 22.03076v95.412046c0 12.147668-9.882068 22.030759-22.028712 22.030759H553.563116zM356.494809 67.91094799999996H194.429713V553.32443h40.932248v-444.481234h121.132848zM214.895837 413.476335h141.599995v-40.932248H214.895837z"  horiz-adv-x="1024" />

    
    <glyph glyph-name="shexiangtou1" unicode="&#58928;" d="M512 673.76c-118.432 0-214.048-95.2-214.048-213.152 0-117.92 95.616-213.12 214.048-213.12s214.048 95.232 214.048 213.12c0 117.952-95.616 213.152-214.048 213.152z m-85.6-269.952a85.728 85.728 0 0 0-85.664 85.248 85.664 85.664 0 0 0 171.264 0 85.696 85.696 0 0 0-85.6-85.248zM829.216-42.112h-247.52l-4.384 73.6c209.664 31.648 370.208 211.424 370.208 429.152C947.52 700.096 752.448 894.336 512 894.336c-240.448 0-435.52-194.24-435.52-433.696 0-217.728 161.504-398.4 372-429.152l-4.352-73.6H194.784a42.08 42.08 0 1 1 0-84.16h634.432a42.08 42.08 0 1 1 0 84.16zM191.424 460.64c0 176.352 143.456 319.264 320.576 319.264 177.152 0 320.672-142.912 320.672-319.264 0-176.384-143.488-319.264-320.672-319.264-177.12 0-320.576 142.88-320.576 319.264z"  horiz-adv-x="1024" />

    
    <glyph glyph-name="xuncharenwu" unicode="&#59360;" d="M769.664-128c-125.354667 0-226.986667 102.144-226.986667 228.010667 0 125.994667 101.632 228.096 226.986667 228.096s227.029333-102.144 227.029333-228.096c0-125.866667-101.674667-228.010667-227.029333-228.010667z m138.922667 294.698667a46.933333 46.933333 0 0 1-58.112 0l-116.565334-97.536-21.632 21.76a33.28 33.28 0 0 1-47.189333 0 33.536 33.536 0 0 1 0-47.36l29.696-29.909334c7.637333-8.234667 7.637333-8.234667 13.44-13.184 8.234667-6.784 15.914667-14.208 26.666667-14.08a33.322667 33.322667 0 0 1 11.52 1.92 42.496 42.496 0 0 1 16.896 8.064l145.322666 121.6c16.042667 13.610667 16.042667 35.370667-0.042666 48.725334z m-442.026667-66.688c0 168.234667 135.68 304.597333 303.104 304.597333 40.021333 0 78.165333-8.021333 113.152-22.144V896H27.349333v-966.912h491.648a303.061333 303.061333 0 0 0-52.437333 170.922667z m-303.104 0v38.144h227.328v-38.144H163.456z m0 190.421333V328.533333h303.104v-38.101333H163.456z m568.405333 418.816v-76.16H163.541333V709.248h568.32z m0-190.421333v-38.144H163.541333V518.826667h568.32z"  horiz-adv-x="1024" />

    
    <glyph glyph-name="yinhuantaizhang" unicode="&#58905;" d="M977.408-3.4560000000000173l-199.296 376.992c-26.496 46.208-100.8 46.208-127.328 0l-199.392-376.992h-0.032a72.832 72.832 0 0 1 0.032-73.536 72.736 72.736 0 0 1 63.712-36.768h398.688c26.56 0 50.464 13.792 63.744 36.896a72.448 72.448 0 0 1-0.128 73.408z m-22.016-59.52c-11.616-20.096-38.784-24.416-85.024-24.416H545.184c-23.136 0-56.032 2.88-67.648 22.848-11.488 20 0.832 52.832 12.32 72.768h0.032l170.56 327.136c36.928 59.616 76.672 62.656 110.496 0l166.08-318.656c21.536-40.736 29.856-59.776 18.368-79.68zM748.672 93.75999999999999a26.208 26.208 0 1 0-52.416 0v118.72c0 14.496 11.712 26.24 26.176 26.24a26.24 26.24 0 0 0 26.24-26.24v-118.72zM748.672 10.176000000000045a26.176 26.176 0 1 0-52.416 0v3.488a26.24 26.24 0 0 0 26.176 26.24c14.464 0 26.24-11.776 26.24-26.24v-3.488zM620.96 474.944H281.6a18.592 18.592 0 0 0-18.784 18.464v18.56a18.624 18.624 0 0 0 18.784 18.464h339.36c10.464 0 18.944-8.288 18.944-18.464v-18.496a18.688 18.688 0 0 0-18.88-18.528h-0.064z m-108.736-184.896a18.752 18.752 0 0 0-18.88-18.56H281.6a18.656 18.656 0 0 0-18.784 18.496v18.496a18.656 18.656 0 0 0 18.72 18.592h211.712c10.432 0 18.88-8.288 18.88-18.592v-18.464h0.064v0.032zM386.112-5.8559999999999945H149.664a37.344 37.344 0 0 0-37.728 36.896V733.856c0 20.384 16.896 36.96 37.728 36.96h113.12v-36.96A37.376 37.376 0 0 1 300.48 696.864h320.512a37.44 37.44 0 0 1 37.792 36.992V770.816h94.336a37.184 37.184 0 0 0 37.6-36.96v-332.928l45.536-91.36h29.856V770.816c0 40.864-33.76 73.984-75.488 73.984h-131.936C658.816 865.216 641.92 881.792 621.024 881.792H300.48c-20.8 0-37.664-16.544-37.664-36.992H111.968c-41.664 0-75.424-33.12-75.424-73.984v-776.672c0-40.864 33.76-74.016 75.424-74.016h274.144v74.016z"  horiz-adv-x="1024" />

    
    <glyph glyph-name="miehuoziyuanxinxiguanli" unicode="&#58909;" d="M805.12 55.68h-582.4c-53.12 0-97.28 44.8-97.28 99.84v448c0 55.04 44.16 99.84 97.28 99.84h582.4c53.12 0 97.28-44.8 97.28-99.84v-448c0-56.32-44.16-99.84-97.28-99.84m-582.4 49.92h582.4c27.52 0 48.64 21.76 48.64 49.92V503.68H174.08v-349.44c0-26.88 21.12-48.64 48.64-48.64m582.4 547.2h-582.4c-27.52 0-48.64-21.76-48.64-49.92v-49.92h679.68v49.92c0 26.88-21.12 48.64-48.64 49.92 0-1.28 0-1.28 0 0M246.4 353.92h243.2c12.8 0 23.68-10.88 23.68-24.32s-10.88-24.32-23.68-24.32H246.4c-12.8 0-23.68 10.88-23.68 24.32s10.88 23.04 23.68 24.32m0-99.84h194.56c12.8 0 23.68-10.88 23.68-24.32s-10.88-24.32-23.68-24.32H246.4c-12.8 0-23.68 10.88-23.68 24.32 0 12.16 10.88 23.04 23.68 24.32m340.48 98.56h48.64c12.8 0 23.68-10.88 23.68-24.32S648.32 304 635.52 304h-48.64c-12.8 0-23.68 10.88-23.68 24.32-1.28 12.16 9.6 24.32 23.68 24.32z m0 0"  horiz-adv-x="1024" />

    
    <glyph glyph-name="zhuanjia" unicode="&#58959;" d="M744.314476 139.034718c-36.28235 29.879378-77.056735 53.052535-120.2386 68.764817 90.471494 48.459803 152.180541 143.932606 152.218736 253.56093 0 48.090579-11.889249 93.450751-32.857478 133.323488l79.31722 39.738473V433.84227c-21.360601-8.352105-36.536988-29.142087-36.536987-53.424074 0-31.624802 25.728789-57.354749 57.354748-57.354749 31.644478 0 57.388314 25.728789 57.388315 57.354749 0 24.273884-15.175229 45.058079-36.538145 53.414814v221.465049l18.529497 9.283847c10.007248 5.039505 16.253965 15.517832 15.911362 26.747339-0.409735 11.21446-7.338185 21.249487-17.650998 25.563275L460.763053 893.834228c-8.429654 3.443391-18.085039 2.748926-25.826015-1.854223L92.842173 688.648608c-9.583624-5.739757-15.035178-16.606985-13.89394-27.632783 1.086839-11.127652 8.609057-20.678868 19.131368-24.321339l133.700813-46.885681c-19.405681-38.680571-30.351615-82.306894-30.351615-128.44834 0-109.385262 61.424316-204.685605 151.585616-253.246106C222.577589 161.330533 120.69487 49.22181 91.754177-92.067197c-3.207273-15.655567 6.885625-30.94654 22.541193-34.153814 15.655567-3.204958 30.94654 6.884468 34.153814 22.541193C181.398099 57.175754 324.662861 173.925823 489.09956 173.925823c162.823225 0 305.884276-117.331104 340.167723-278.987627 2.886662-13.610366 14.899757-22.939353 28.277478-22.938196 1.988486 0 4.009381 0.206025 6.032591 0.635436 15.633576 3.314915 25.618832 18.676492 22.303917 34.310068-19.140627 90.248107-69.416457 172.67306-141.566793 232.089214z m99.257639 269.798691c15.689133 0 28.452252-12.746914 28.452252-28.414056 0-15.669457-12.763119-28.417528-28.452252-28.417528-15.669457 0-28.418686 12.748072-28.418686 28.417528 0 15.667142 12.749229 28.414056 28.418686 28.414056zM175.371296 670.6307L451.943341 834.999111 801.173839 688.00507l-88.77584-44.460839c-26.087597 32.294961-59.235593 58.927713-96.263336 77.280121-39.31485 19.484387-83.324286 29.784468-127.272378 29.784468-44.560379 0-89.106869-10.57208-128.825666-30.572686-37.695588-18.983215-71.259105-46.561597-97.423094-79.992009l-87.242229 30.586575z m83.930786-209.270235c0 126.57907 102.978817 229.557887 229.557888 229.557888 126.580227 0 229.562517-102.978817 229.562517-229.547471-0.043983-126.587172-103.026272-229.571777-229.562517-229.571776-126.57907-0.001157-229.557887 102.979975-229.557888 229.561359z"  horiz-adv-x="1024" />

    
    <glyph glyph-name="shiftSwitch2" unicode="&#58915;" d="M415.10054114 593.6190494699999m-185.88864407 0a185.88864407 185.88864407 0 1 1 371.77728812 0 185.88864407 185.88864407 0 1 1-371.77728812 0ZM620.92277585 779.50769354a184.28683743 184.28683743 0 0 1-73.70287004-15.28637464 215.9274578 215.9274578 0 0 0 0-341.20453809A185.76999173 185.76999173 0 1 1 620.92277585 779.50769354zM746.73379247 344.44916544H593.07902972a176.19870421 176.19870421 0 0 0 176.11960265-176.25803037V-11.5078125H907.50769354v195.04464839A160.8530034 160.8530034 0 0 1 746.73379247 344.44916544zM548.84148784 344.44916544H277.40451707A160.91232957 160.91232957 0 0 1 116.4921875 183.53683589000002V-11.5078125h593.26162992v195.04464839A160.91232957 160.91232957 0 0 1 548.84148784 344.44916544zM496.17963034 96.92063807h-109.33811777l8.30566251-10.46118009c9.67016448-11.86523283 6.90161055-29.2477981-4.84496993-38.99706414a31.89770045 31.89770045 0 0 0-17.30346448-5.57665937 28.08105082 28.08105082 0 0 0-22.12865901 10.46118009l-42.89281532 55.70726689a27.9228477 27.9228477 0 0 0-2.7487793 29.2477981A28.81273951 28.81273951 0 0 0 330.06637457 152.62790498000004h166.11325576a27.86352152 27.86352152 0 0 0 0-55.70726691z m24.89721294 98.50120603a28.81273951 28.81273951 0 0 0-24.89721294-15.28637464h-166.11325577a27.685543 27.685543 0 0 0 0 55.54906377h109.97093028l-8.30566253 10.42162933c-9.67016448 11.86523283-6.90161055 29.16869653 4.84496994 38.87841179s29.0500442 6.94116133 38.73998406-4.86474534l42.89281608-55.54906376a27.685543 27.685543 0 0 0 2.8081047-29.14892115z"  horiz-adv-x="1024" />

    
    <glyph glyph-name="xunchajihuaguanli" unicode="&#58957;" d="M713.161381 462.477675a295.238837 295.238837 0 1 1 295.238837-295.238838 295.238837 295.238837 0 0 1-295.238837 295.238838z m0-510.683395a215.444557 215.444557 0 1 0 215.444557 215.444557 215.444557 215.444557 0 0 0-215.444557-215.444557zM278.920907-47.0886H96.032416V718.058755h104.450713v-67.027196a32.955038 32.955038 0 0 1 32.955038-32.955038h426.101457a32.955038 32.955038 0 0 1 32.955038 32.955038v66.388842h104.450713v-183.526845a39.89714 39.89714 0 1 1 79.794281 0V760.349723a36.785163 36.785163 0 0 1-36.785164 36.705369H692.494662V857.698745a32.875244 32.875244 0 0 1-3.032182 13.724617A39.89714 39.89714 0 0 1 652.597522 896H240.38027a39.89714 39.89714 0 0 1-36.864958-24.576638 32.875244 32.875244 0 0 1-3.032183-13.724617v-59.84571H53.741448a36.705369 36.705369 0 0 1-36.146809-30.162238 39.89714 39.89714 0 0 1-1.356503-9.734902v-838.31871a44.36562 44.36562 0 0 1-0.638354-6.622925 39.33858 39.33858 0 0 1 7.341074-22.900958 39.89714 39.89714 0 0 1 33.19442-17.873919 41.413232 41.413232 0 0 1 7.979428 0.877737H278.920907a39.89714 39.89714 0 0 1 0 79.79428z m1.356503 801.932518V816.20572h332.422972v-118.334918H280.27741zM352.092262 530.143224h-143.629705a39.89714 39.89714 0 0 1 0-79.79428h143.629705a39.89714 39.89714 0 0 1 0 79.79428zM352.092262 374.943349h-143.629705a39.89714 39.89714 0 0 1 0-79.79428h143.629705a39.89714 39.89714 0 0 1 0 79.79428zM832.852801 159.418998H723.055872V242.644432a39.89714 39.89714 0 0 1-79.794281 0v-123.122574a39.89714 39.89714 0 0 1 39.89714-39.89714h149.69407a39.89714 39.89714 0 1 1 0 79.79428z"  horiz-adv-x="1024" />

    
    <glyph glyph-name="menjin" unicode="&#58995;" d="M1000.995675-58.125901V791.680923c0 91.156175-27.432965 104.319077-116.866891 104.319077H220.693897c-89.433926 0-116.743873-13.039885-116.743873-104.319077V-43.855839c0-7.996156-6.396925-14.39308-14.39308-14.39308H14.39308c-7.996156 0-14.39308-6.396925-14.39308-14.39308v-40.964921c0-7.996156 6.396925-14.39308 14.39308-14.39308h1074.683326c7.996156 0 14.39308 6.396925 14.39308 14.39308v40.964921c0 7.996156-6.396925 14.39308-14.39308 14.39308h-88.080731v0.123018z m-68.397885 0H186.617972c-7.996156 0-14.39308 6.396925-14.39308 14.39308V791.680923c0 31.861605 2.706391 34.567996 48.469005 34.567996h663.434887c48.469005 0 48.469005 0 48.469006-34.567996v-849.806824zM687.300336 421.520423v67.905814c-0.123018 74.056704-60.647765 134.08938-135.442575 134.08938-74.79481-0.123018-135.442576-60.032677-135.442576-134.08938v-67.905814c-40.226814-3.198462-71.350312-36.413263-71.350312-76.394041v-153.895243c0-42.441134 34.814032-76.886112 77.747237-76.886113h258.337337c42.933205 0 77.747237 34.444978 77.747237 76.886113V345.126382c-0.369053 39.980778-31.369534 73.195579-71.596348 76.394041z m-48.71504 0.615089H464.88419v67.290725c0 47.361845 38.996636 85.989428 86.850553 85.989429s86.850553-38.504565 86.850553-85.989429v-67.290725z"  horiz-adv-x="1103" />

    
    <glyph glyph-name="tianranshuiyuan" unicode="&#59122;" d="M295.838476 242.297905l63.488-84.650667a191.634286 191.634286 0 0 0-114.590476-7.704381c-32.426667 7.509333-59.587048 21.552762-73.728 32.524191-60.464762 42.812952-90.697143 38.326857-141.263238 0.682666a48.566857 48.566857 0 0 0-29.110857-9.654857v107.52c70.41219 42.22781 138.971429 43.154286 228.352-20.138667 5.36381-4.144762 20.284952-11.897905 37.741714-15.945142 9.801143-2.243048 19.504762-3.169524 29.110857-2.633143z m618.788572 67.584a256.78019 256.78019 0 0 0 151.795809-49.005715c2.194286-1.706667 12.092952-11.946667 14.433524-13.653333 12.385524-9.118476 28.281905-9.118476 61.732571 14.726095a48.518095 48.518095 0 0 0 28.330667 9.069715v-106.057143c-56.466286-29.891048-107.861333-25.697524-147.797333 3.657143-9.654857 7.070476-19.358476 16.822857-16.579048 15.213714A158.768762 158.768762 0 0 1 829.586286 186.514286l85.040762 123.367619zM266.630095 488.838095l-12.092952-97.03619a213.577143 213.577143 0 0 0-9.752381 1.950476c-32.475429 7.558095-59.63581 21.601524-73.776762 32.572952-60.464762 42.812952-90.697143 38.326857-141.263238 0.682667A48.566857 48.566857 0 0 0 0.633905 417.304381V524.824381c70.41219 42.22781 138.971429 43.154286 228.352-20.138667 5.36381-4.144762 20.23619-11.849143 37.64419-15.896381z m631.564191 64.268191a256 256 0 0 0 168.228571-48.37181c2.194286-1.706667 12.092952-11.946667 14.433524-13.653333 12.385524-9.118476 28.281905-9.118476 61.732571 14.726095A48.518095 48.518095 0 0 0 1170.919619 514.82819v-106.057142c-56.466286-29.891048-107.861333-25.697524-147.797333 3.657142-9.654857 7.070476-19.358476 16.822857-16.579048 15.213715a157.013333 157.013333 0 0 1-95.865905 28.233143l-12.483047 97.182476zM0.633905-70.314667v107.52c70.41219 42.22781 138.971429 43.154286 228.352-20.138666 5.36381-4.144762 20.284952-11.897905 37.741714-15.945143 27.696762-6.339048 54.564571-2.194286 81.334857 16.774095a255.122286 255.122286 0 0 0 299.593143-0.828952c5.461333-4.193524 20.333714-11.897905 37.839238-15.945143 27.648-6.339048 54.51581-2.194286 81.286095 16.774095a255.171048 255.171048 0 0 0 299.641905-0.828952c2.194286-1.706667 12.092952-11.946667 14.433524-13.653334 12.385524-9.118476 28.281905-9.118476 61.732571 14.726096a48.518095 48.518095 0 0 0 28.330667 9.069714v-106.057143c-56.466286-29.891048-107.861333-25.697524-147.797333 3.657143-9.654857 7.070476-19.358476 16.822857-16.579048 15.213714a158.72 158.72 0 0 1-182.857143-1.365333c-51.297524-36.327619-106.691048-44.909714-160.182857-32.524191-32.426667 7.509333-59.587048 21.552762-73.923048 32.621715a158.671238 158.671238 0 0 1-184.612571-0.097524c-51.297524-36.327619-106.691048-44.909714-160.182857-32.524191-32.475429 7.509333-59.63581 21.552762-73.776762 32.524191-60.464762 42.812952-90.697143 38.326857-141.263238 0.682666a48.566857 48.566857 0 0 0-29.110857-9.654857zM829.586286 425.837714c0-132.437333-109.275429-239.079619-243.516953-239.079619C451.876571 186.758095 341.967238 293.400381 341.967238 425.837714 341.967238 558.275048 585.435429 896 585.435429 896S829.586286 558.08 829.586286 425.837714z"  horiz-adv-x="1170" />

    
    <glyph glyph-name="qushuimatou" unicode="&#58917;" d="M913.664 545.1264c32.7168 0 59.136-25.088 59.136-56.1152C972.8 261.7344 777.5232 76.8 537.6 76.8S102.4 261.7344 102.4 489.0112c0 30.9248 26.5216 56.064 59.136 56.064 32.768 0 59.1872-25.088 59.1872-56.064 0-145.2544 109.568-266.752 254.464-294.2464v350.72c0 1.1264 0.3584 2.2528 0.4608 3.4304-76.0832 23.0912-131.072 90.112-131.072 169.216C344.576 816.4352 429.2608 896 533.8112 896c104.5504 0 189.2352-79.616 189.2352-177.8688 0-76.6464-51.7632-141.8752-124.2624-166.8096 0.2048-1.9456 0.6144-3.7888 0.6144-5.7856v-350.7712c145.2032 27.3408 255.0784 148.8896 255.0784 294.3488 0 30.9248 26.5216 56.0128 59.1872 56.0128z m-379.8528 114.1248c34.56 0 62.6688 26.4192 62.6688 58.88 0 32.512-28.1088 58.88-62.6688 58.88-34.56 0-62.6688-26.3168-62.6688-58.88 0-32.4608 28.1088-58.88 62.6688-58.88z m-14.2848-727.9616l-26.88 24.064a22.016 22.016 0 0 1-30.3104 0l-26.9312-24.064c-28.2624-25.3952-67.1744-25.3952-95.3344 0l-26.9312 24.064a22.016 22.016 0 0 1-30.3104 0l-34.816-31.4368c-11.8272-10.7008-28.7232-7.936-37.7344 6.144-9.0112 14.1824-6.656 34.304 5.12 45.056l34.816 31.4368c28.2624 25.3952 67.2256 25.3952 95.3856 0l26.88-24.064a22.016 22.016 0 0 1 30.3616 0l26.88 24.064c28.2624 25.3952 67.1744 25.3952 95.3344 0l26.9312-24.064a22.016 22.016 0 0 1 30.3104 0l26.9312 24.064c28.2112 25.3952 67.1744 25.3952 95.3344 0l26.9312-24.064a22.016 22.016 0 0 1 30.3104 0l26.88 24.064c28.2624 25.3952 67.2256 25.3952 95.3856 0l26.88-24.064c11.8784-10.7008 14.1312-30.9248 5.1712-45.056-8.96-14.1312-25.9072-16.8448-37.7856-6.144l-26.88 24.064a22.016 22.016 0 0 1-30.3104 0l-26.9312-24.064c-28.2624-25.3952-67.1744-25.3952-95.3344 0l-26.9312 24.064a22.016 22.016 0 0 1-30.3104 0l-26.88-24.064a70.6048 70.6048 0 0 0-47.5136-19.0464c-17.2032 0-33.9456 6.7072-47.7184 19.0464z"  horiz-adv-x="1024" />

    
    <glyph glyph-name="canzhanliliangguanli" unicode="&#58945;" d="M384 426.667H85.333C38.4 426.667 0 465.067 0 512V810.667C0 857.6 38.4 896 85.333 896H384c46.933 0 85.333-38.4 85.333-85.333V512c0-46.933-38.4-85.333-85.333-85.333zM384 512v-42.667V512zM85.333 810.667V512H384V810.667H85.333zM770.133 384c-21.333 0-40.533 8.533-55.466 23.467L537.6 584.533c-14.933 14.934-23.467 34.134-23.467 55.467s8.534 40.533 23.467 55.467l177.067 179.2c29.866 29.866 81.066 29.866 110.933 0l177.067-179.2c14.933-14.934 23.466-34.134 23.466-55.467s-8.533-40.533-23.466-55.467L825.6 407.467C810.667 392.533 791.467 384 770.133 384z m-166.4 256l168.534-168.533L938.667 640 770.133 808.533 603.733 640zM384-128H85.333C38.4-128 0-89.6 0-42.667V256c0 46.933 38.4 85.333 85.333 85.333H384c46.933 0 85.333-38.4 85.333-85.333v-298.667c0-46.933-38.4-85.333-85.333-85.333z m0 85.333v-42.666 42.666zM85.333 256v-298.667H384V256H85.333zM940.8-128H642.133c-46.933 0-85.333 38.4-85.333 85.333V256c0 46.933 38.4 85.333 85.333 85.333H940.8c46.933 0 85.333-38.4 85.333-85.333v-298.667c0-46.933-38.4-85.333-85.333-85.333z m0 85.333v-42.666 42.666zM642.133 256v-298.667H940.8V256H642.133z"  horiz-adv-x="1026" />

    
    <glyph glyph-name="xunchadian" unicode="&#60735;" d="M609.28 479.744c55.296 55.296 55.296 145.408 0 201.216-55.296 55.296-145.408 55.296-201.216 0-55.296-55.296-55.296-145.408 0-201.216 55.808-55.296 145.92-55.296 201.216 0zM459.264 629.76c27.136 27.136 71.68 27.136 98.816 0 27.136-27.136 27.136-71.68 0-98.816-27.136-27.136-71.68-27.136-98.816 0-27.136 27.136-27.136 71.68 0 98.816z m0 0M483.328 162.816c14.336-14.336 36.864-14.336 51.2 0l196.096 196.096c122.368 122.368 122.368 320.512 0 442.88-122.88 122.368-321.024 122.368-443.392 0s-122.368-320.512 0-442.88l196.096-196.096zM338.432 750.592c94.208 94.208 246.784 94.208 340.992 0 94.208-94.208 94.208-246.784 0-340.992l-51.2-51.2-113.152-112.64c-3.584-3.584-9.216-3.584-12.8 0L389.12 358.912l-51.2 51.2c-93.696 94.208-93.696 246.784 0.512 340.48z m0 0M974.336-82.944l-38.912 304.128c-2.56 19.968-20.992 35.84-40.96 35.84h-120.32c-19.968 0-36.352-16.384-36.352-36.352 0-19.968 16.384-36.352 36.352-36.352h73.728c9.728 0 18.944-8.192 20.48-17.92l26.624-195.584c1.536-9.728-5.632-17.92-15.872-17.92H138.752c-9.728 0-16.896 8.192-15.872 17.92l26.624 195.584c1.536 9.728 10.752 17.92 20.48 17.92h73.728c19.968 0 36.352 16.384 36.352 36.352 0 19.968-16.384 36.352-36.352 36.352H122.88c-19.968 0-38.4-16.384-40.96-35.84l-38.912-304.128c-2.56-19.968 11.776-35.84 31.744-35.84h867.84c19.968 0 34.304 16.384 31.744 35.84z m0 0M412.16 92.16c-19.968 0-36.352-16.384-36.352-36.352 0-19.968 16.384-36.352 36.352-36.352h193.024c19.968 0 36.352 16.384 36.352 36.352 0 19.968-16.384 36.352-36.352 36.352H412.16z m0 0"  horiz-adv-x="1024" />

    
    <glyph glyph-name="shebei" unicode="&#58918;" d="M729.5 514.6c-19 0-34.1 15.2-34.1 34.1 0 49.3-39.8 89.2-89.2 89.2-49.3 0-89.2-39.8-89.2-89.2 0-19-15.2-34.1-34.1-34.1-18.7 0-33.8 15.2-33.8 34.1 0 86.6 70.5 157.1 157.1 157.1s157.1-70.5 157.1-157.1c0.1-18.6-15.1-34.1-33.8-34.1zM852.5 514.6c-19 0-34.1 15.2-34.1 34.1 0 117.3-95.2 212.5-212.5 212.5S393.4 666 393.4 548.7c0-19-15.2-34.1-34.1-34.1-19 0-34.1 15.2-34.1 34.1C325.2 703.3 451 829.5 606 829.5s280.8-125.8 280.8-280.8c-0.1-18.6-15.3-34.1-34.3-34.1zM176.8-61.5c-62 0-112.9 49.6-112.9 110.4V268.3c0 61 50.6 110.4 112.9 110.4H580V559.8c0 8.2 6.6 14.5 14.9 14.5h27.8c8.2 0 14.9-6.6 14.9-14.5v-181.2h209.6c62 0 112.9-49.6 112.9-110.4v-219.4c0-61-50.6-110.4-112.9-110.4H176.8z m0 383.5c-30.4 0-55-24-55-53.8v-219.4c0-29.7 24.7-53.8 55-53.8h670.6c29.4 0 54.1 23.7 55 52.5V268.3c0 29.7-24.7 53.8-55 53.8l-670.6-0.1zM455.7 102.3c-15.5 0-30 6-40.8 16.8-10.8 11.1-16.8 25.3-16.8 40.8 0 31.6 25.9 57.5 57.5 57.5 31.9 0 57.9-25.9 57.9-57.5 0-15.2-5.7-29.7-16.8-40.8-11.3-10.8-25.5-16.8-41-16.8z m-195.4 0c-31.9 0-57.9 25.9-57.9 57.9s25.9 57.9 57.9 57.9 57.9-25.9 57.9-57.9-26-57.9-57.9-57.9z"  horiz-adv-x="1024" />

    
    <glyph glyph-name="charenyuan" unicode="&#58971;" d="M502.968027 321.211127a287.394437 287.394437 0 1 0 287.394437 287.394436 287.394437 287.394437 0 0 0-287.394437-287.394436z m0 502.940264A215.545828 215.545828 0 1 1 718.513854 608.605563 215.545828 215.545828 0 0 1 502.968027 824.151391zM71.876372-109.880528H0.027763a502.940264 502.940264 0 0 0 502.940264 502.940264v-71.848609A431.091655 431.091655 0 0 1 71.876372-109.880528z m682.561787 82.620348a168.849784 168.849784 0 1 0 168.849784 168.849784 168.849784 168.849784 0 0 0-168.849784-168.849784z m0 287.394436a118.544653 118.544653 0 1 1 118.544653-118.544652 118.544653 118.544653 0 0 1-118.544653 118.544652zM844.535797 15.845283l35.57265 35.57265 143.845283-143.845283-35.57265-35.57265z"  horiz-adv-x="1024" />

    
    <glyph glyph-name="xungengxunchaguanli_paibanguanli" unicode="&#59126;" d="M320 660a40 40 0 0 1 40 40v152a40 40 0 0 1-80 0v-152a40 40 0 0 1 40-40zM704 664a40 40 0 0 1 40 40V856a40 40 0 0 1-80 0v-152a40 40 0 0 1 40-40zM400 816h224v-80H400zM920 816H784v-80h136a24 24 0 0 0 24-24v-96H80V712a24 24 0 0 0 24 24h136V816H104A104 104 0 0 1 0 712v-736a104 104 0 0 1 104-104h816a104 104 0 0 1 104 104V712a104 104 0 0 1-104 104z m24-840a24 24 0 0 0-24-24H104a24 24 0 0 0-24 24V536h864zM192 408m32 0l64 0q32 0 32-32l0-64q0-32-32-32l-64 0q-32 0-32 32l0 64q0 32 32 32ZM448 408m32 0l64 0q32 0 32-32l0-64q0-32-32-32l-64 0q-32 0-32 32l0 64q0 32 32 32ZM704 408m32 0l64 0q32 0 32-32l0-64q0-32-32-32l-64 0q-32 0-32 32l0 64q0 32 32 32ZM192 208m32 0l64 0q32 0 32-32l0-64q0-32-32-32l-64 0q-32 0-32 32l0 64q0 32 32 32ZM448 208m32 0l64 0q32 0 32-32l0-64q0-32-32-32l-64 0q-32 0-32 32l0 64q0 32 32 32ZM704 208m32 0l64 0q32 0 32-32l0-64q0-32-32-32l-64 0q-32 0-32 32l0 64q0 32 32 32Z"  horiz-adv-x="1024" />

    
    <glyph glyph-name="yingjiliandong" unicode="&#58953;" d="M512 793c50.356 0 91.214-35.846 100.323-84.615C770.16 664.548 886 519.802 886 348c0-25.905-2.634-51.194-7.648-75.616l-0.01 0.005C904.318 253.46 921 222.231 921 186.311 921 127.332 876.027 81 818.778 81c-13.4 0-26.128 2.539-37.764 7.184C713.01 17.78 617.618-26 512-26c-105.618 0-201.01 43.78-269.02 114.183-11.63-4.644-24.358-7.183-37.758-7.183C147.973 81 103 127.332 103 186.311c0 35.92 16.682 67.15 42.658 86.078l-0.01-0.005C140.634 296.806 138 322.095 138 348c0 171.802 115.84 316.548 273.675 360.391C420.786 757.154 461.645 793 512 793z m94.736-145.544l-0.435-1.104c-15.333-37.912-51.364-63.974-94.301-63.974-43.35 0-79.663 26.567-94.738 65.075C290.148 607.279 198 488.4 198 348c0-19.255 1.733-38.106 5.052-56.404a84.35 84.35 0 0 0 2.17 0.026c57.249 0 102.222-46.332 102.222-105.31 0-22.47-6.527-43.104-17.774-60.04C346.513 69.272 425.137 34 512 34s165.487 35.27 222.334 92.271c-11.25 16.937-17.778 37.57-17.778 60.04 0 58.979 44.973 105.311 102.222 105.311 0.724 0 1.447-0.007 2.167-0.022A315.54 315.54 0 0 1 826 348c0 140.4-92.148 259.279-219.264 299.456zM411.88 491a2.868 2.868 0 0 0 2.86-2.86v-14.3H560.6c6.328 0 11.44-5.112 11.44-11.44v-40.397h91.52c6.328 0 11.44-5.113 11.44-11.44v-148.72c0-6.328-5.112-11.44-11.44-11.44H514.84a11.428 11.428 0 0 0-11.44 11.44V302.24h-88.66v-94.38a2.868 2.868 0 0 0-2.86-2.86h-20.02a2.868 2.868 0 0 0-2.86 2.86V488.14a2.868 2.868 0 0 0 2.86 2.86z"  horiz-adv-x="1024" />

    
    <glyph glyph-name="daozha" unicode="&#59160;" d="M128 288c0-17.7 14.3-32 32-32h192c17.7 0 32 14.3 32 32s-14.3 32-32 32H160c-17.7 0-32-14.4-32-32zM896 704H512v64c0 35.3-28.7 64-64 64H64C28.7 832 0 803.3 0 768v-768c0-35.3 28.7-64 64-64h384c35.3 0 64 28.7 64 64V448h384c70.7 0 128 57.3 128 128s-57.3 128-128 128zM659.6 512h-69.2l121.9 121.9c1.9 1.9 3.6 4 5.1 6.1h68.5l-120-120c-2.4-2.5-4.6-5.2-6.3-8zM448 0H64V768h384v-64H262.9c-63.8 0-122.9-43.6-133.1-106.5-11.9-69.7 35-135.8 104.7-147.7 7.1-1.2 14.3-1.8 21.6-1.8h192v-448zM256 512c-35.4 0-64.1 28.8-64 64.2 0 3.7 0.3 7.4 1 11.1 4.8 29.6 35.5 52.8 69.9 52.8h365l-120-120c-2.5-2.5-4.6-5.2-6.3-8H256z m640 0H748.4l121.9 121.9c1.9 1.9 3.6 4 5.1 6.1H896c35.3 0 64-28.7 64-64s-28.7-64-64-64z"  horiz-adv-x="1024" />

    
    <glyph glyph-name="xiaofangshuihe1" unicode="&#59166;" d="M841.33 551.59l-0.16 0.35-0.15 0.34-60.18 134-60.1-134-0.16-0.36-0.17-0.36a66.78 66.78 0 0 1 60.49-94.34h0.93a66.57 66.57 0 0 1 59.5 94.34zM336.87 412h-36.14V736a23.5 23.5 0 0 0 23.5 23.5h397.14a23.53 23.53 0 0 0 22.76-17.63 8 8 0 0 1 7.77-5.87h56.6a8 8 0 0 1 8 8.71 95.64 95.64 0 0 1-95.13 86.79H324.23a95.5 95.5 0 0 1-95.5-95.5v-464l-51.4-236.64a32.3 32.3 0 0 1-0.73-6.79V-56a8 8 0 0 1 8-8h160.25a8 8 0 0 1 8 8v84.57a31.65 31.65 0 0 1-0.73 6.79L300.73 272v84h36.14v-32h56V444h-56z"  horiz-adv-x="1024" />

    
    <glyph glyph-name="leixing" unicode="&#58921;" d="M376.832 415.54H164.045c-36.864 0-66.765 29.9-66.765 66.764V695.091c0 36.864 29.9 66.765 66.765 66.765h212.787c36.864 0 66.765-29.9 66.765-66.765v-212.787c0-36.66-29.901-66.765-66.765-66.765zM164.045 710.655c-8.602 0-15.565-6.963-15.565-15.565v-212.787c0-8.602 6.963-15.565 15.565-15.565h212.787c8.602 0 15.565 6.963 15.565 15.565V695.091c0 8.602-6.963 15.565-15.565 15.565H164.045zM727.04 371.507c-17.818 0-34.611 6.963-47.309 19.456L529.203 541.491c-26.01 26.01-26.01 68.403 0 94.413l150.528 150.528c12.698 12.698 29.287 19.456 47.309 19.456s34.611-6.963 47.309-19.456l150.528-150.528c26.01-26.01 26.01-68.403 0-94.413L774.144 391.168c-12.493-12.698-29.286-19.66-47.104-19.66z m0 383.181c-4.096 0-7.987-1.638-11.06-4.506L565.454 599.654c-6.144-6.144-6.144-15.974 0-21.913L715.98 427.213c2.867-2.867 6.758-4.506 11.059-4.506 4.096 0 7.987 1.639 11.06 4.506L888.626 577.74c6.144 6.144 6.144 15.974 0 21.913L738.1 750.182c-3.072 2.868-6.963 4.506-11.059 4.506zM376.832-40.96H164.045c-36.864 0-66.765 29.9-66.765 66.765V238.592c0 36.864 29.9 66.765 66.765 66.765h212.787c36.864 0 66.765-29.901 66.765-66.765v-212.787c0-36.864-29.901-66.765-66.765-66.765zM164.045 254.157c-8.602 0-15.565-6.963-15.565-15.565v-212.787c0-8.602 6.963-15.565 15.565-15.565h212.787c8.602 0 15.565 6.963 15.565 15.565V238.592c0 8.602-6.963 15.565-15.565 15.565H164.045zM833.33-40.96H620.544c-36.864 0-66.765 29.9-66.765 66.765V238.592c0 36.864 29.901 66.765 66.765 66.765h212.787c36.864 0 66.765-29.901 66.765-66.765v-212.787c0-36.864-29.9-66.765-66.765-66.765zM620.544 254.157c-8.602 0-15.565-6.963-15.565-15.565v-212.787c0-8.602 6.963-15.565 15.565-15.565h212.787c8.602 0 15.565 6.963 15.565 15.565V238.592c0 8.602-6.963 15.565-15.565 15.565H620.544z"  horiz-adv-x="1024" />

    
    <glyph glyph-name="zhiqinguanli" unicode="&#58923;" d="M1056.74 654.692C919.75 713.392 789.336 896 645.77 896s-273.98-182.608-410.97-241.308c-156.545-65.07-234.8-71.748-234.8-117.4 0-39.145 71.748-104.352 91.304-130.449a165.826 165.826 0 0 0 19.555-91.304c189.149-71.748 534.809-78.255 534.809-78.255s339.05 6.507 534.809 78.255a165.826 165.826 0 0 0 19.555 91.304c19.555 26.097 91.304 97.845 91.304 130.449 0.205 45.652-78.085 52.159-234.596 117.4zM776.288 498.147c-19.556-97.845-71.749-182.608-130.449-182.608-52.193 0-123.907 78.256-130.449 182.608-6.507 110.859 45.652 182.608 130.449 182.608s150.004-78.256 130.449-182.608zM137.127 204.646c13.048-117.4 234.8-332.612 508.712-332.612s495.664 221.753 508.712 332.612c-104.352-52.159-293.5-84.797-508.712-84.797a1410.346 1410.346 0 0 0-508.712 84.797z"  horiz-adv-x="1291" />

    
    <glyph glyph-name="xiaofangshuichi1" unicode="&#59154;" d="M898.944 743.04h-385.322667a28.202667 28.202667 0 0 1-34.048-27.52 28.16 28.16 0 0 1 34.048-27.52h385.28c11.690667 0 21.248-9.173333 21.845334-20.650667l-21.674667-202.581333c-26.368-21.077333-97.92-70.912-141.44-70.912-35.968 0-51.626667 14.848-71.509333 33.706667-21.76 20.565333-48.810667 46.208-101.077334 46.208-45.653333 0-70.826667-24.917333-91.050666-44.928-19.712-19.541333-35.328-34.986667-70.272-34.986667-20.352 0-29.781333 9.344-47.530667 28.757333-19.712 21.589333-46.677333 51.157333-100.693333 51.157334-52.096 0-111.317333-29.354667-151.466667-53.76L98.645333 660.906667a28.16 28.16 0 1 1-54.912-4.138667L111.786667 10.069333c0.853333-41.685333 34.986667-75.306667 76.885333-75.306666h640.256c41.856 0 75.989333 33.621333 76.885333 75.264l69.888 653.226666 0.170667 1.493334v1.450666c0 42.410667-34.517333 76.885333-76.885333 76.885334zM74.666667 810.666667h106.666666a149.76 149.76 0 0 0 149.333334-138.24L362.666667 256H298.666667l-35.882667 412.714667A85.333333 85.333333 0 0 1 177.749333 746.666667H74.666667a32 32 0 0 0 0 64z"  horiz-adv-x="1024" />

    
    <glyph glyph-name="lianqinbaozhang1" unicode="&#59004;" d="M696.388267 759.466667a183.671467 183.671467 0 0 1-132.096-52.736L442.9824 585.386667a29.320533 29.320533 0 0 1 0.580267-40.96 29.730133 29.730133 0 0 1 41.301333-0.6144L606.208 664.917333h0.375467a124.450133 124.450133 0 0 0 90.692266 36.181334 133.12 133.12 0 0 0 131.072-130.901334 125.269333 125.269333 0 0 0-36.181333-90.794666l-131.857067-131.754667a126.5664 126.5664 0 0 0-90.248533-35.498667 134.417067 134.417067 0 0 0-111.957333 64.7168 137.352533 137.352533 0 0 0-13.312 29.4912 29.9008 29.9008 0 0 1-36.5568 20.104534 28.398933 28.398933 0 0 1-18.909867-35.84c4.8128-14.916267 11.434667-29.184 19.626667-42.496v-0.273067a193.877333 193.877333 0 0 1 161.860266-93.3888 182.6816 182.6816 0 0 1 130.594134 51.268267l132.096 132.130133a181.3504 181.3504 0 0 1 52.565333 131.549867A193.536 193.536 0 0 1 696.4224 759.466667m-158.685867-533.7088l-121.1392-121.2416c-49.220267-49.2544-132.642133-48.196267-183.227733 2.4576v0.170666c-50.722133 50.551467-51.882667 133.666133-2.628267 182.6816l130.491734 130.935467a127.1808 127.1808 0 0 0 91.204266 35.9424A134.4512 134.4512 0 0 0 544.597333 418.133333v-0.375466c7.611733-7.645867 14.2336-16.247467 19.6608-25.565867 5.7344-9.0112 10.24-18.773333 13.312-28.9792a29.627733 29.627733 0 0 1 36.181334-20.309333 28.535467 28.535467 0 0 1 19.456 35.771733 228.215467 228.215467 0 0 1-18.773334 42.461867 241.186133 241.186133 0 0 1-29.013333 37.102933 193.979733 193.979733 0 0 1-133.632 56.490667 183.057067 183.057067 0 0 1-132.096-52.701867L188.757333 331.434667c-71.168-71.304533-69.393067-191.453867 3.7888-265.181867l2.116267-1.536c73.6256-71.68 191.7952-72.772267 262.9632-2.730667v0.477867l0.341333 0.341333 121.582934 121.105067a29.627733 29.627733 0 0 1-41.847467 41.8816"  horiz-adv-x="1024" />

    
    <glyph glyph-name="daiban" unicode="&#58954;" d="M372.674303 278.158417 208.583061 278.158417l0-55.112202 158.683069 0C367.966071 241.817744 369.801882 260.210649 372.674303 278.158417L372.674303 278.158417zM208.583061 492.135836l353.807095 0c29.618575 13.797237 61.45363 22.044062 94.675266 23.715121l0 31.399127L208.583061 547.250084 208.583061 492.135836 208.583061 492.135836zM158.507572 126.509555c-20.847817 0-29.540803 8.698103-29.540803 29.526477l0 593.077573c0 20.828374 8.694009 29.52443 29.540803 29.52443l548.628222 0c20.826328 0 29.54592-8.696056 29.54592-29.52443l0-237.22489c23.485901-4.300956 33.708729-11.326976 54.92596-20.72502L791.607674 788.783093c0 24.76708-20.083407 44.847417-44.847417 44.847417L118.888226 833.630511c-24.769127 0-44.852534-20.081361-44.852534-44.847417l0-672.728658c0-24.758893 20.083407-44.847417 44.852534-44.847417l283.845697 0c-11.346419 21.157879-20.263509 31.520901-26.356274 55.302537L178.973696 126.509555 158.507572 126.509555zM208.583061 681.794383l448.481338 0 0-55.113225-448.481338 0 0 55.113225ZM679.400103 475.764983c-148.146085 0-268.25358-120.091122-268.25358-268.258697 0-148.144038 120.112612-268.257673 268.25358-268.257673 148.164504 0 268.25665 120.114658 268.25665 268.257673C947.656753 355.673861 827.564607 475.764983 679.400103 475.764983zM679.87901-9.252479C560.885895-9.252479 464.4311 87.198224 464.4311 206.189292c0 118.999255 96.455819 215.45712 215.44791 215.45712 119.001301 0 215.452004-96.457866 215.452004-215.45712C895.32999 87.198224 798.875195-9.252479 679.87901-9.252479zM208.583061 412.706809l0-55.113225 197.292412 0c8.973372 19.528775 19.332301 37.97387 30.9325 55.113225L208.583061 412.706809zM681.543929 181.487703 681.543929 306.070116 627.394658 306.070116 627.394658 126.317173 807.143509 126.317173 807.143509 181.487703Z"  horiz-adv-x="1024" />

    
    <glyph glyph-name="fangkechuruchangchaxun" unicode="&#59131;" d="M519.6 275l-245.4 0.9C284.5 371.5 329.5 448 389 479.1c10.1-5.4 21.1-9.5 32.6-12.1 0.4-1.8 0.6-3.6 1.7-5.2l8.7-12.2L411.5 342c-0.8-4.3 0.5-8.7 3.5-11.8l23.8-24.7c2.5-2.6 5.9-4.1 9.6-4.1 3.6 0 7.1 1.5 9.6 4.1l23.8 24.7c3 3.2 4.3 7.6 3.5 11.8l-20.5 107.5 8.7 12.2c1 1.4 1.2 3.2 1.6 4.8 57.6 12.4 101 63.8 101 125.3 0 70.7-57.3 128.2-127.7 128.2s-127.6-57.5-127.6-128.2c0-38.5 17.3-72.7 44.2-96.2-64.4-40.7-111.1-127-118.6-232.2-0.2-3.7 1-7.3 3.5-10s6-4.3 9.7-4.3l293-1.1c-12.3 7.4-23.4 16.4-33 27z m-71.2 59l-9.4 9.8 9.4 49.4 9.4-49.4-9.4-9.8z m-101 257.9c0 55.9 45.3 101.4 101 101.4s101-45.5 101-101.4c0-43.9-28.1-81.1-67.1-95.1-4.7-1.7-9.4-3.3-14.4-4.3-6.3-1.2-12.8-2-19.5-2-6.7 0-13.3 0.7-19.7 2-14.1 2.8-27.1 8.7-38.4 16.7-25.8 18.3-42.9 48.5-42.9 82.7zM994-50.6L781.7 160.9c-14.2-16.4-29.6-31.7-46-45.9l212.5-211.6c8.2-8.4 20.2-11.8 31.6-8.8 11.3 3 20.2 11.9 23.1 23.2 3 11.4-0.4 23.4-8.9 31.6zM732.7 163.8c12.7 12.7 33.2 12.8 45.9 0.1l3.1-3.1c65.6 76 105.3 175 105.3 283.2 0 154.9-82.6 298-216.7 375.4C536.2 896.8 370.9 896.8 236.8 819.4 102.6 742 20 598.9 20 444c0-239.4 194.1-433.5 433.5-433.5 107.8 0 206.4 39.3 282.2 104.4l-2.9 2.9c-12.7 12.8-12.8 33.3-0.1 46z m-279.2-88.3C250 75.5 85 240.5 85 444 85 647.6 250 812.5 453.5 812.5S822 647.6 822 444c0-203.5-165-368.5-368.5-368.5z m178.2 385.1c-58.9 0-106.6-47.5-106.6-106.2 0-58.6 47.7-106.2 106.6-106.2 58.8 0 106.6 47.6 106.6 106.2 0 58.7-47.7 106.2-106.6 106.2z m0-187.9c-45.3 0-82 36.6-82 81.7s36.7 81.7 82 81.7 82-36.6 82-81.7-36.7-81.7-82-81.7z m51.8 111.2h-55l18 17.6-14 13.5-51.7-50.3h102.6v19.2z m-97-55.8h55l-18-17.6 13.9-13.6 51.7 50.3H586.5v-19.1z"  horiz-adv-x="1024" />

    
    <glyph glyph-name="gongzuoliu" unicode="&#58933;" d="M909.312 185.344h-83.968v147.456a14.336 14.336 0 0 1-14.336 14.336H512v151.552h141.312a114.688 114.688 0 0 1 114.688 114.688V754.688a114.688 114.688 0 0 1-114.688 114.688H342.016a114.688 114.688 0 0 1-114.688-114.688v-143.36a114.688 114.688 0 0 1 114.688-114.688h141.312v-151.552H212.992l-10.24-4.096a14.336 14.336 0 0 1-4.096-10.24v-147.456H114.688a114.688 114.688 0 0 1-114.688-112.64v-57.344a114.688 114.688 0 0 1 114.688-114.688h198.656a114.688 114.688 0 0 1 114.688 114.688v57.344a114.688 114.688 0 0 1-114.688 114.688h-86.016v133.12h569.344v-133.12h-86.016a114.688 114.688 0 0 1-114.688-114.688v-57.344a114.688 114.688 0 0 1 114.688-114.688h198.656a114.688 114.688 0 0 1 114.688 114.688v57.344a114.688 114.688 0 0 1-114.688 114.688z m0 0"  horiz-adv-x="1024" />

    
    <glyph glyph-name="yijianguanli" unicode="&#58936;" d="M571.578794 185.648385a31.302234 31.302234 0 0 0-21.911564 9.390671l-187.813404 187.813404a31.302234 31.302234 0 0 0 0 44.449172l350.585022 351.211067a31.928279 31.928279 0 0 0 44.449172 0l187.813404-187.813405a31.302234 31.302234 0 0 0 0-44.449172l-350.585021-351.837111a31.302234 31.302234 0 0 0-22.537609-8.764626zM429.466652 403.511935l142.112142-142.112143L876.462554 567.535641 736.228545 707.76965zM922.789861 536.233407a31.302234 31.302234 0 0 0-21.911564 9.39067l-187.813405 187.813405a31.302234 31.302234 0 0 0 0 44.449172L796.328835 858.646418a125.208936 125.208936 0 0 0 178.422734 0l51.961709-51.961709a125.208936 125.208936 0 0 0 0-178.422734l-82.011854-82.637898a31.302234 31.302234 0 0 0-21.911563-9.39067z m-142.112143 217.863549l142.112143-142.112142 62.604468 62.604468a62.604468 62.604468 0 0 1 0 90.150434l-51.961709 51.961708a62.604468 62.604468 0 0 1-90.150434 0zM323.039056 123.043917a31.302234 31.302234 0 0 0-30.67619 38.814771l62.604468 250.417872A31.302234 31.302234 0 0 0 375.626809 433.562079a30.676189 30.676189 0 0 0 30.676189-8.138581l187.813405-187.813404a31.302234 31.302234 0 0 0-14.399028-52.587753l-250.417873-62.604468z m79.507674 219.115639l-36.310591-144.616322 144.616321 36.310592zM1023.583054-128H31.302234a31.302234 31.302234 0 0 0-31.302234 31.302234V837.360899a31.302234 31.302234 0 0 0 31.302234 31.302234h575.961107a31.302234 31.302234 0 0 0 0-62.604468H62.604468v-871.454197h929.676352V422.293275a31.302234 31.302234 0 0 0 62.604468 0v-518.991041a31.302234 31.302234 0 0 0-31.302234-31.302234z"  horiz-adv-x="1064" />

    
    <glyph glyph-name="tongji" unicode="&#59206;" d="M1083.392-128H0V896h59.392v-963.584h1024zM130.048 5.12L80.896 39.936l178.176 254.976 338.944-29.696L954.368 762.88l48.128-34.816-375.808-526.336-337.92 29.696z"  horiz-adv-x="1083" />

    
    <glyph glyph-name="biaodanguanli" unicode="&#58984;" d="M279.74656 679.49056h481.88416v-60.18048H279.74656V679.49056z m-1.46944-121.2672h481.77152v-60.18048H278.27712V558.22336zM149.1456 800.86528h722.59584v-451.73248c0-16.54784 13.48608-30.14656 30.14656-30.14656 16.54272 0 30.14656 13.48608 30.14656 30.14656V800.86528c0 33.54624-27.08992 60.18048-60.17536 60.18048H149.1456c-33.54624 0-60.17536-27.08992-60.17536-60.18048V-42.0864c0-33.55136 27.08992-60.18048 60.17536-60.18048h391.55712c16.54784 0 30.15168 13.48608 30.15168 30.14144 0 16.54784-13.4912 30.1568-30.15168 30.1568H149.1456V800.86528zM279.29088 317.39904v-60.18048H425.8304c0 20.84864 2.94912 41.25696 8.71936 60.18048H279.29088z m245.92896 120.46848H278.16448v-60.18048h182.912a219.27936 219.27936 0 0 0 64.14336 60.18048zM698.25536 117.44768c-32.99328 0-59.84256 26.83904-59.84256 59.83232 0 32.9728 26.84416 59.81184 59.84256 59.81184 32.98304 0 59.83232-26.83392 59.83232-59.81184-0.00512-32.9984-26.84928-59.83232-59.83232-59.83232z m0 82.03264a22.24128 22.24128 0 0 1-22.23616-22.20032 22.25152 22.25152 0 0 1 22.23616-22.22592 22.25152 22.25152 0 0 1 22.2208 22.22592 22.2464 22.2464 0 0 1-22.2208 22.20032zM621.0048-47.872a19.40992 19.40992 0 0 0-8.5248 1.9968l-58.15808 32.47616a18.80576 18.80576 0 0 0-8.17152 23.68c1.54624 3.67104 6.5536 16.62464 6.5536 29.20448 0 40.41216-31.5648 73.7024-71.8592 75.78624a18.80576 18.80576 0 0 0-17.54112 15.40096c-0.82432 4.53632-4.92544 28.032-4.92544 46.39744 0 18.49344 4.11136 41.91744 4.92544 46.40768a18.82112 18.82112 0 0 0 17.53088 15.40096c40.30464 2.09408 71.86944 35.35872 71.86944 75.74528 0 11.14624-4.0448 23.42912-6.43584 28.94336a18.80576 18.80576 0 0 0 8.192 23.97184l60.66176 33.31072a18.54976 18.54976 0 0 0 7.424 2.24768 22.07744 22.07744 0 0 0 14.52544-3.67104c1.15712-0.76288 2.21184-1.65888 3.16416-2.6624 0.31744-0.32256 7.9104-8.22784 19.10784-16.22528 29.68064-21.1712 50.29888-21.27872 80.1024-0.3072a143.32928 143.32928 0 0 1 18.91328 15.8208c0.95744 0.98816 2.0224 1.88416 3.16416 2.65216 6.08256 4.0704 15.26784 5.10976 22.03136 1.36704l58.5728-32.54272a18.80576 18.80576 0 0 0 8.14592-23.87456c-0.6656-1.54624-6.49728-15.47264-6.49728-29.0304 0-40.38656 31.57504-73.6512 71.89504-75.74528a18.7904 18.7904 0 0 0 17.80224-19.75296c-0.5376-10.37312-9.56928-18.19136-19.74272-17.80736-60.31872 3.1232-107.55584 52.89984-107.55584 113.3056 0 10.11712 1.83808 19.82464 3.95776 27.648l-34.05824 18.92352a186.5216 186.5216 0 0 0-15.01696-11.72992c-42.70592-30.07488-80.91136-29.94176-123.55072 0.44544a193.98144 193.98144 0 0 0-15.11424 12.02176l-36.0192-19.77344c2.09408-7.77728 3.9424-17.4848 3.9424-27.53536 0-55.15776-39.38816-101.45792-92.14464-111.45728-1.16736-8.48384-2.18624-18.35008-2.18624-26.10176 0-8.19712 1.09056-18.176 2.18624-26.0864 52.75136-10.00448 92.14464-56.30976 92.14464-111.49824 0-10.04032-1.83296-19.74272-3.98848-27.67872l32.52224-18.176a189.51168 189.51168 0 0 0 14.99136 12.23168c21.67296 15.90272 42.90048 23.96672 63.09376 23.96672a18.80576 18.80576 0 0 0 0-37.61152c-12.02176 0-25.76896-5.61152-40.86272-16.68096-11.41248-8.36608-19.19488-16.77312-19.2768-16.86016a18.33984 18.33984 0 0 0-4.09088-3.33824 22.8864 22.8864 0 0 0-11.6992-3.20512zM914.79552-66.86208h-0.06144c-3.2768 0-7.40864 1.07008-10.24512 2.69312a18.75968 18.75968 0 0 0-4.608 3.70688c-0.02048 0.02048-3.26656 3.54816-8.00256 7.07584-5.51424 4.11136-10.57792 6.35904-14.26944 6.35904-2.10944 0-6.7584-0.80896-14.12608-6.2208-4.64384-3.39968-7.89504-6.85568-7.936-6.88128a20.0192 20.0192 0 0 0-3.9168-3.2768c-5.7088-3.5584-14.26944-3.98336-20.1472-0.70656l-27.89376 15.5904a18.82112 18.82112 0 0 0-8.064 23.95136c0.91136 2.06336 2.34496 6.66112 2.34496 10.1888a27.1872 27.1872 0 0 1-25.77408 27.17184 18.80064 18.80064 0 0 0-17.58208 15.63136c-1.65888 9.73824-2.4832 17.7664-2.4832 24.04864 0 7.99744 1.3568 17.4848 2.4832 24.0384a18.88768 18.88768 0 0 0 17.5616 15.63136 27.20768 27.20768 0 0 1 25.79456 27.17184c0 2.81088-0.9472 6.86592-2.46272 10.55232a18.83136 18.83136 0 0 0 8.33024 23.63392l29.45536 16.19968c6.35392 3.4816 15.79008 2.60608 21.56032-1.73568 0.90624-0.67584 1.73568-1.42848 2.50368-2.24768 0 0.00512 3.17952-3.26144 7.66976-6.46144 5.47328-3.91168 10.41408-6.0416 13.97248-6.0416 2.03776 0 6.54848 0.76288 13.85472 5.89312 4.56192 3.21536 7.76704 6.49216 7.808 6.52288 1.06496 1.1008 2.24768 2.06336 3.54816 2.87744 5.71904 3.56352 14.41792 4.0192 20.29568 0.77312l28.47232-15.81568a18.80576 18.80576 0 0 0 8.09984-23.96672c-0.91136-2.06336-2.33984-6.66624-2.33984-10.1888a27.20256 27.20256 0 0 1 25.78944-27.17184 18.81088 18.81088 0 0 0 17.5616-15.60576c1.14688-6.69184 2.4832-16.15872 2.4832-24.07424 0-7.90528-1.34144-17.38752-2.46272-23.9616-1.49504-8.65792-8.81152-15.2576-17.59744-15.71328a27.1872 27.1872 0 0 1-25.77408-27.17184c0-3.43552 1.30048-7.76192 2.42688-10.40896a18.82624 18.82624 0 0 0-8.2432-23.76192l-28.92288-15.96928a19.19488 19.19488 0 0 0-9.10336-2.3296z m-37.19168 57.4464c12.06272 0 24.41728-4.63872 36.70016-13.78304 0.95232-0.71168 1.87392-1.41824 2.75968-2.11968l4.60288 2.54976a55.57248 55.57248 0 0 0-0.65024 8.3968 64.8192 64.8192 0 0 0 45.5936 61.93152c0.1536 1.86368 0.24064 3.52768 0.24064 4.92032 0 1.38752-0.08704 3.05664-0.24064 4.92544a64.8192 64.8192 0 0 0-45.5936 61.92128c0 2.92864 0.256 5.7856 0.6656 8.45312l-4.59264 2.56c-0.8704-0.65536-1.76128-1.32608-2.69824-1.98656-24.28416-17.02912-47.30368-16.88064-71.28064 0.2816a92.2368 92.2368 0 0 0-2.7904 2.06336l-5.49888-3.0208c0.4096-2.66752 0.65536-5.48352 0.65536-8.36096 0-28.98944-19.06176-53.69856-45.5936-61.91616-0.14848-1.63328-0.22528-3.28704-0.24576-4.93568 0-1.01376 0.0512-2.62144 0.24576-4.9152a64.79872 64.79872 0 0 0 45.5936-61.9264c0-2.944-0.26112-5.81632-0.67584-8.49408l3.74272-2.08896c0.88064 0.69632 1.78688 1.37728 2.688 2.048 12.20096 8.94976 24.43776 13.49632 36.37248 13.49632z"  horiz-adv-x="1024" />

    
    <glyph glyph-name="zidianguanli" unicode="&#58914;" d="M225.5 299.3h63.8V244h-63.8v55.3z m0 165.8h63.8v-55.3h-63.8v55.3z m0 165.7h63.8v-55.3h-63.8v55.3z m127.6-331.5h446.3V244H353.1v55.3z m0 165.8h446.3v-55.3H353.1v55.3z m0 165.7h446.3v-55.3H353.1v55.3zM98 739.7v-694.3c0-46.6 45-77.7 96.4-77.7h732.5v46.6H194.4c-19.3 0-32.2 10.4-32.2 25.9 0 15.5 12.8 25.9 32.2 25.9h732.5V796.6H168.7c-32.1-5.1-64.3-31.1-70.7-56.9z"  horiz-adv-x="1024" />

    
    <glyph glyph-name="fangkedengji" unicode="&#58941;" d="M336.210686-58.182526l-182.842684-0.45154c-47.084755 0-85.4034 39.43971-85.4034 87.894657V740.109601c0 48.501657 38.334215 87.941368 85.4034 87.941368h596.874008c47.084755 0 85.372259-39.43971 85.372259-87.941368l-0.249126-110.767509a33.990086 33.990086 0 1 1 67.964602 0h0.280266v110.767509C903.610011 826.104674 834.80461 896 750.226439 896H153.383572C68.77426 896 0 826.104674 0 740.109601v-710.84901c0-85.963933 68.77426-155.90597 153.383572-155.90597l182.842685 0.498251a33.990086 33.990086 0 1 1 0 67.964602M139.541526 671.677888m20.241462 0l497.706414 0q20.241462 0 20.241462-20.241462l0-16.940547q0-20.241462-20.241462-20.241462l-497.706414 0q-20.241462 0-20.241462 20.241462l0 16.940547q0 20.241462 20.241462 20.241462ZM139.541526 529.115713m20.241462 0l341.784874 0q20.241462 0 20.241462-20.241462l0-16.940547q0-20.241462-20.241462-20.241462l-341.784874 0q-20.241462 0-20.241462 20.241462l0 16.940547q0 20.241462 20.241462 20.241462ZM139.541526 383.346045m20.241462 0l143.325123 0q20.241462 0 20.241462-20.241462l0-16.940547q0-20.241462-20.241462-20.241462l-143.325123 0q-20.241462 0-20.241462 20.241462l0 16.940547q0 20.241462 20.241462 20.241462ZM740.105708 444.786668a123.51963 123.51963 0 1 1 123.472919-123.472919 123.659763 123.659763 0 0 1-123.472919 123.472919m0-303.93334a180.46042 180.46042 0 1 0 180.46042 180.460421 180.693976 180.693976 0 0 0-180.46042-180.382569M1045.782927-101.623818v5.947876 1.448043q0 2.958368-0.202414 5.901165v1.276769q-0.124563 2.693672-0.311407 5.371773v0.965362q-0.202415 2.942797-0.467111 5.870024 0 0.731807-0.140133 1.463613-0.280266 2.927227-0.607244 5.823313l-0.108993 0.903081q-0.311407 2.63139-0.669525 5.26278c0 0.4204-0.108992 0.85637-0.171274 1.276769q-0.404829 2.849375-0.856369 5.667609l-0.233556 1.401332q-0.45154 2.755953-0.949791 5.496336l-0.093423 0.482681c-0.342548 1.884013-0.716236 3.752456-1.105495 5.620898l-0.295836 1.401332q-0.591674 2.771523-1.214488 5.511906l-0.280267 1.198917q-0.591674 2.491257-1.214487 4.951374l-0.249126 0.980932q-0.700666 2.740383-1.463613 5.434054l-0.389259 1.385762q-0.778518 2.709242-1.557036 5.402913l-0.264696 0.825229q-0.762947 2.444546-1.557035 4.873521l-0.40483 1.214488q-0.87194 2.63139-1.806161 5.24721l-0.467111 1.276769q-0.918651 2.522398-1.868442 5.029225l-0.155704 0.43597q-1.012073 2.64696-2.086427 5.26278l-0.513822 1.261199q-1.058784 2.553538-2.16428 5.091506l-0.45154 1.012073q-1.027643 2.319983-2.086428 4.671107l-0.389258 0.856369q-1.183347 2.522398-2.397835 5.029225l-0.576103 1.183347q-1.245628 2.522398-2.537968 5.013654l-0.295837 0.560533q-1.214488 2.335553-2.475687 4.671107l-0.544962 0.996503q-1.339051 2.444546-2.740383 4.84238l-0.576103 0.980933q-1.401332 2.397835-2.833804 4.764528l-0.124563 0.217985q-1.557036 2.460116-3.114071 4.873522l-0.607244 0.949791q-1.557036 2.382264-3.114071 4.671107l-0.43597 0.638384q-1.557036 2.257702-3.114071 4.484263l-0.358119 0.513822q-1.666028 2.351124-3.363196 4.671106l-0.576104 0.794088q-1.74388 2.351124-3.53447 4.671107-1.806161 2.335553-3.674604 4.671107l-0.45154 0.560532q-1.852872 2.273272-3.736886 4.515404l-0.43597 0.498251q-3.892589 4.593255-7.987592 9.015236l-0.4204 0.45154q-2.070857 2.226561-4.188425 4.421981a299.106529 299.106529 0 0 1-82.912143 60.039291 309.600949 309.600949 0 0 1-48.408236 18.902411c-14.496001 4.297418-33.28942 11.054952-48.517227 10.307576a23.682511 23.682511 0 0 1-6.959949-1.432473c-16.893836 1.666028-88.315056-0.45154-93.686829-1.463613l-2.257702-0.43597a309.320682 309.320682 0 0 1-72.27759-23.604659 284.844084 284.844084 0 0 1-78.209896-53.250616l-0.233555-0.233555q-4.562114-4.328559-8.937384-8.843962-2.117568-2.19542-4.188426-4.421981l-0.420399-0.451541q-4.095003-4.421981-7.987593-9.015235l-0.420399-0.498252q-1.899583-2.242131-3.752456-4.515403l-0.43597-0.544962q-1.868443-2.304413-3.674604-4.671107-1.790591-2.319983-3.550041-4.671107l-0.576103-0.778517q-1.712739-2.319983-3.378767-4.671107l-0.358118-0.513822q-1.557036-2.226561-3.114072-4.484262l-0.43597-0.638385q-1.557036-2.351124-3.114071-4.671106l-0.607244-0.934222q-1.557036-2.428975-3.114071-4.873521l-0.124562-0.202415q-1.448043-2.366694-2.833805-4.780099l-0.576103-0.980932q-1.385762-2.413405-2.740383-4.857951l-0.544962-0.980932q-1.261199-2.304413-2.491257-4.671107l-0.295837-0.544963q-1.29234-2.491257-2.537968-5.013654l-0.576103-1.183347q-1.230058-2.506827-2.397835-5.029225l-0.389259-0.856369q-1.058784-2.304413-2.086427-4.671107l-0.451541-1.012073q-1.105495-2.537968-2.164279-5.107077l-0.513822-1.261199q-1.074355-2.61582-2.086427-5.26278l-0.155704-0.420399q-0.965362-2.506827-1.868443-5.044796l-0.45154-1.261198q-0.934221-2.61582-1.806161-5.24721l-0.389259-1.198917q-0.794088-2.428975-1.557036-4.889092l-0.249125-0.809659q-0.825229-2.693672-1.557036-5.418483l-0.389259-1.385762q-0.762947-2.709242-1.463613-5.449624l-0.249126-0.980933q-0.638385-2.475687-1.214488-4.966943l-0.280266-1.183347q-0.638385-2.740383-1.214488-5.511906l-0.295836-1.385762c-0.389259-1.868443-0.762947-3.752456-1.105496-5.636468l-0.077851-0.467111q-0.498251-2.740383-0.949792-5.511906l-0.233556-1.385762q-0.45154-2.833805-0.856369-5.667609l-0.171274-1.261199q-0.358118-2.63139-0.669525-5.26278l-0.108993-0.903081q-0.326977-2.911656-0.607244-5.838883l-0.140133-1.463613q-0.264696-2.927227-0.46711-5.870024v-0.949792q-0.171274-2.678101-0.311408-5.387343v-1.261199q-0.124563-2.942797-0.202414-5.916735v-7.738467a20.039048 20.039048 0 0 1 2.864945-10.759115c9.840465-16.411155 41.697412-15.274519 41.790834-15.274519h515.082931c0.093422 0 31.950369-1.136636 41.790834 15.274519a20.023477 20.023477 0 0 1 2.864945 10.743545v0.124563 0.186844z m-540.291336 26.952286q0.280266 2.802664 0.638385 5.574187c0 0.529392 0.140133 1.043214 0.202415 1.557035q0.264696 1.993006 0.560532 3.986011l0.280267 1.852873q0.295837 1.884013 0.622814 3.752455c0.108992 0.591674 0.202415 1.198917 0.311407 1.790591q0.373689 2.039717 0.778518 4.048293c0.093422 0.45154 0.171274 0.918651 0.280266 1.370191q1.136636 5.480765 2.506828 10.899249l0.311407 1.152206q0.544962 2.101998 1.136636 4.203996l0.404829 1.432473q0.576103 2.024146 1.198917 4.017152l0.404829 1.307909q0.716236 2.257702 1.463614 4.515404l0.233555 0.685095q1.821732 5.387343 3.908159 10.665694l0.155704 0.404829q0.949792 2.397835 1.946294 4.748958l0.311408 0.747377q0.965362 2.273272 1.977435 4.530974l0.249125 0.576103c24.289755 53.655445 69.568348 97.159018 123.332786 120.841529a221.099048 221.099048 0 0 0 47.084755 14.511571c49.825138 9.684761 96.100234 5.854454 142.873582-14.527141a242.087887 242.087887 0 0 0 122.554269-120.825959l0.249125-0.576103q1.012073-2.257702 1.977435-4.546544l0.311408-0.747377q0.996503-2.366694 1.946294-4.748958l0.155704-0.40483q2.070857-5.278351 3.908159-10.665693l0.217985-0.685096q0.747377-2.242131 1.463613-4.515403l0.404829-1.30791q0.622814-2.008576 1.198918-4.017151l0.404829-1.432473q0.591674-2.086428 1.136636-4.203996l0.311407-1.152206q1.385762-5.387343 2.506827-10.899249l0.280267-1.370192q0.404829-2.024146 0.778518-4.048292c0.108992-0.591674 0.217985-1.198917 0.311407-1.790591q0.326977-1.868443 0.622814-3.752456c0.093422-0.622814 0.202415-1.230058 0.295837-1.852872q0.295837-1.977435 0.560532-3.970441c0-0.529392 0.140133-1.043214 0.217985-1.557035q0.358118-2.787094 0.638385-5.574187z"  horiz-adv-x="1045" />

    
    <glyph glyph-name="tongji1" unicode="&#60271;" d="M862.1 797.8H161.9c-35.2 0-63.7-28.5-63.7-63.7v-509.3c0-35.2 28.5-63.7 63.7-63.7h318.3v-127.3h-95.5c-17.6 0-31.8-14.3-31.8-31.8 0-17.6 14.3-31.8 31.8-31.8h254.6c17.6 0 31.8 14.3 31.8 31.8 0 17.6-14.2 31.8-31.8 31.8h-95.5V161.2h318.3c35.2 0 63.7 28.5 63.7 63.7V734.1c0 35.2-28.5 63.7-63.7 63.7z m0-509.3c0-35.2-28.5-63.7-63.7-63.7H225.5c-35.1 0-63.6 28.5-63.6 63.7v382c0 35.2 28.5 63.7 63.6 63.7h572.9c35.2 0 63.7-28.5 63.7-63.7v-382zM711.3 596.1L544.8 429.5 438.3 536c-6.3 6.2-14.5 9.3-22.7 9-8 0.2-16.1-2.7-22.2-8.8L265 407.8c-11.8-11.8-11.8-31 0-42.8 11.8-11.8 31-11.8 42.8 0l107 107 104.8-104.8c1.2-1.9 2.7-3.7 4.4-5.4 6.5-6.5 15-9.7 23.5-9.7 1 0 2 0 3.1 0.1 7.4 0.7 14.6 3.9 20.3 9.6l187.4 187.4c12.9 12.9 12.9 33.9 0 46.8-13.1 13-34 13-47 0.1z"  horiz-adv-x="1024" />

    
    <glyph glyph-name="yongcheshenqing" unicode="&#58929;" d="M899.05712 860.448a34.848 34.848 0 0 0 34.56-35.2V-92.8a34.816 34.816 0 0 0-34.56-35.2H124.91312A34.816 34.816 0 0 0 90.35312-92.8V825.344a34.816 34.816 0 0 0 34.56 35.2h140.032V872.64a23.2 23.2 0 0 0 23.04 23.36h448a23.232 23.232 0 0 0 23.008-23.36v-12.16z m-34.528-918.4V790.4h-105.6v-12.16a23.2 23.2 0 0 0-23.008-23.424h-448a23.2 23.2 0 0 0-23.008 23.424V790.4h-105.6v-848H864.43312zM310.99312 801.504h401.952v47.68H311.05712v-47.68z m-7.296-341.12a15.776 15.776 0 0 0-15.648 16v26.272a15.776 15.776 0 0 0 15.648 16h14.688v8.96L375.08912 649.6a33.856 33.856 0 0 0 29.024 16h215.776a33.632 33.632 0 0 0 29.024-16l56.672-122.272v-8.928h14.752a15.808 15.808 0 0 0 15.648-16v-26.272a15.776 15.776 0 0 0-15.648-16h-14.752V307.2a15.776 15.776 0 0 0-15.648-16h-42.336a15.776 15.776 0 0 0-15.648 16v28.8H392.04912v-28.8a15.776 15.776 0 0 0-15.648-16H334.06512a15.776 15.776 0 0 0-15.648 16v153.184h-14.688z m342.4-30.048a31.328 31.328 0 1 1-31.328-32 31.552 31.552 0 0 1 31.296 32z m-247.008 31.776a31.84 31.84 0 1 1 31.328-31.808 31.616 31.616 0 0 1-31.328 31.808z m11.616 158.368l-29.632-64h261.888l-29.632 64z m296-511.392a35.2 35.2 0 0 0 0-70.176H317.29712a35.2 35.2 0 0 0 0 70.176z m0 99.584a35.2 35.2 0 0 0 0-70.176H317.29712a35.2 35.2 0 0 0 0 70.176z"  horiz-adv-x="1024" />

    
    <glyph glyph-name="qingjiashenqing" unicode="&#58889;" d="M530.6-20.6H166.8c-14.4 0-26 11.6-26 26V644.9c0 14.4 11.6 26 26 26H219c14.4 0 26-11.6 26-26v-40.6c0-11.6 9.4-21.5 21.5-21.5h322.7c11.6 0 21.5 9.4 21.5 21.5v40.6c0 14.4 11.6 26 26 26h52.2c14.4 0 26-11.6 26-26v-275.7c0-11.6 9.4-21.5 21.5-21.5 11.6 0 21.5 9.4 21.5 21.5V692.3c0 11.6-9.4 21.5-21.5 21.5h-116c-8 0-15.6 3.7-20.5 10.1-9.3 12-23.9 19.4-39.5 19.4h-15.9c-11.6 0-21.8 7.7-25 18.8-11.3 39.6-48 68.8-91.4 68.8s-80.1-29.2-91.1-69c-3.1-11.2-13.4-19-25-19h-16c-15.7 0-30.2-7.4-39.5-19.4-4.9-6.4-12.5-10.1-20.5-10.1H119.4c-11.6 0-21.5-9.4-21.5-21.5v-734c0-11.6 9.4-21.5 21.5-21.5h411.2c5.8 0 11.2 2.2 15.2 6.3 4 4 6.3 9.4 6.3 15.2 0 12.1-9.8 21.5-21.5 21.5z m-102.8 809c26.4 0 48.3-19.7 51.9-45.6H376.4c3.2 25.5 25.1 45.2 51.4 45.6z m-140.3-96.1c0 4.5 3.6 8 8 8h264.2c4.5 0 8-3.6 8-8v-67H287.5v67zM736.3 332c-109.1 0-197.6-88.5-197.6-197.6s88.5-197.6 197.6-197.6 197.6 88.5 197.6 197.6c-0.5 108.7-89 197.6-197.6 197.6z m0-352.6c-85.4 0-154.7 69.3-154.7 154.7s69.3 154.7 154.7 154.7S890.9 219.4 890.9 134c0-84.9-69.3-154.6-154.6-154.6zM441.2 771l-1.3 2.7-1.8 2.2-2.2 1.8-2.7 1.3c-3.6 1.3-7.6 1.3-11.2 0-1.8-0.9-3.6-1.8-4.9-3.1-0.4-0.9-1.3-1.3-1.8-2.2L414 771c-0.4-0.9-0.9-1.8-0.9-2.7s-0.4-1.8-0.4-3.1c0-1.8 0.4-4 1.3-5.4 0.9-1.8 1.8-3.6 3.1-4.9 1.3-1.3 3.1-2.2 4.9-3.1 1.8-0.9 3.6-1.3 5.4-1.3 0.9 0 1.8 0 3.1 0.4 0.9 0 1.8 0.4 2.7 0.9l2.7 1.3c0.9 0.4 1.3 1.3 2.2 1.8 1.3 1.3 2.2 3.1 3.1 4.9 0.9 1.8 1.3 3.6 1.3 5.4 0 0.9 0 1.8-0.4 3.1 0 0.9-0.4 1.8-0.9 2.7zM332.8 272.2H264c-3.7 0-6.6-7.6-6.6-17s3-17 6.6-17h68.8c3.7 0 6.6 7.6 6.6 17s-3 17-6.6 17z m135 0.6H399c-3.7 0-6.6-7.6-6.6-17s3-17 6.6-17h68.8c3.7 0 6.6 7.6 6.6 17 0.1 9.4-2.9 17-6.6 17zM332.8 168H264c-3.7 0-6.6-7.6-6.6-17s3-17 6.6-17h68.8c3.7 0 6.6 7.6 6.6 17s-3 17-6.6 17zM332.8 471.1H264c-3.7 0-6.6-7.6-6.6-17s3-17 6.6-17h68.8c3.7 0 6.6 7.6 6.6 17s-3 17-6.6 17z m135 0.6H399c-3.7 0-6.6-7.6-6.6-17s3-17 6.6-17h68.8c3.7 0 6.6 7.6 6.6 17 0.1 9.4-2.9 17-6.6 17z m136.1 0h-68.8c-3.7 0-6.6-7.6-6.6-17s3-17 6.6-17h68.8c3.7 0 6.6 7.6 6.6 17s-2.9 17-6.6 17zM467.8 366.8H399c-3.7 0-6.6-7.6-6.6-17s3-17 6.6-17h68.8c3.7 0 6.6 7.6 6.6 17 0.1 9.4-2.9 17-6.6 17z m-135 0.1H264c-3.7 0-6.6-7.6-6.6-17s3-17 6.6-17h68.8c3.7 0 6.6 7.6 6.6 17s-3 17-6.6 17zM720.2 34.2c8.7 0.9 16.5 6.1 20.9 13.9l85.3 142.8c7.8 13.9 9.8 26.2-3.3 34-13.9 7.8-29.1 3.5-37-9.6l-72.8-120.8-34.1 45.9c-11.3 11.3-29.6 11.3-40.1 0-11.3-11.3-11.3-29.6 0-40.1l57.5-57.5c6.2-6.9 14.9-9.5 23.6-8.6z"  horiz-adv-x="1024" />

    
    <glyph glyph-name="renyuantongji" unicode="&#59355;" d="M740.331193 511.981201H479.98684v-620.013788h-9.471721H479.98684v-0.063998a184475.605029 184475.605029 0 0 0-67.518016 0c-67.07003 0-193.914304 0.191994-380.468824 0.767978v149.371612c0 54.206408 28.799154 103.804951 54.078411 119.804481 21.823359 13.823594 46.398637 19.519427 70.397933 27.135203 25.407254 8.127761 51.006502 15.551543 75.773774 25.343255 25.343256 9.983707 47.99859 25.215259 64.638101 48.062588 8.703744 11.90365 13.247611 26.367225 12.735626 41.21479a454.514649 454.514649 0 0 1-2.175936 32.639041 50.750509 50.750509 0 0 1-17.087498 32.511045 226.617343 226.617343 0 0 1-19.583425 17.279492 94.077236 94.077236 0 0 0-31.295081 42.878741c-4.479868 11.967648-8.319756 24.51128-12.991618 36.670923a11.391665 11.391665 0 0 1-5.183848 6.335813 54.910387 54.910387 0 0 0-27.519192 26.23923c-16.383519 32.191054-18.04747 64.062118 5.11985 94.333229a14.399577 14.399577 0 0 1 2.111938 7.679774c2.175936 28.223171 2.815917 56.958327 6.591806 85.1175 4.479868 33.087028 11.90365 65.790067 27.775185 95.613191 31.99906 60.158233 81.277612 97.213144 147.067679 109.62878A290.935454 290.935454 0 0 0 463.98731 894.817955c26.623218 2.431929 53.758421 1.02397 81.597603-4.287874C611.310983 878.050447 660.589535 840.931538 692.652593 780.901301c15.871534-29.823124 23.231318-62.526163 27.711186-95.613191 3.775889-28.159173 4.479868-56.894329 6.591807-85.1175 0-2.751919 0.639981-5.375842 2.111938-7.679774 19.839417-25.919239 21.503368-53.054442 11.263669-80.509635zM543.98496 447.98308h191.994361v-556.143663H543.98496zM799.977441 319.98684h191.99436v-428.083425h-191.99436z"  horiz-adv-x="1024" />

    
    </font>
</defs>
</svg>
