<?xml version="1.0" standalone="no"?>
<!DOCTYPE svg PUBLIC "-//W3C//DTD SVG 1.1//EN" "http://www.w3.org/Graphics/SVG/1.1/DTD/svg11.dtd" >
<svg xmlns="http://www.w3.org/2000/svg">
<metadata>
Created by FontForge 20120731 at Mon Dec 19 12:21:48 2016
 By admin
</metadata>
<defs>
<font id="iconfont" horiz-adv-x="1024" >
  <font-face 
    font-family="iconfont"
    font-weight="500"
    font-stretch="normal"
    units-per-em="1024"
    panose-1="2 0 6 3 0 0 0 0 0 0"
    ascent="896"
    descent="-128"
    x-height="792"
    bbox="-892 -242 1767 914"
    underline-thickness="0"
    underline-position="0"
    unicode-range="U+0078-EA62"
  />
<missing-glyph 
 />
    <glyph glyph-name=".notdef" 
 />
    <glyph glyph-name=".notdef" 
 />
    <glyph glyph-name=".null" horiz-adv-x="0" 
 />
    <glyph glyph-name="nonmarkingreturn" horiz-adv-x="341" 
 />
    <glyph glyph-name="x" unicode="x" horiz-adv-x="1001" 
d="M281 543q-27 -1 -53 -1h-83q-18 0 -36.5 -6t-32.5 -18.5t-23 -32t-9 -45.5v-76h912v41q0 16 -0.5 30t-0.5 18q0 13 -5 29t-17 29.5t-31.5 22.5t-49.5 9h-133v-97h-438v97zM955 310v-52q0 -23 0.5 -52t0.5 -58t-10.5 -47.5t-26 -30t-33 -16t-31.5 -4.5q-14 -1 -29.5 -0.5
t-29.5 0.5h-32l-45 128h-439l-44 -128h-29h-34q-20 0 -45 1q-25 0 -41 9.5t-25.5 23t-13.5 29.5t-4 30v167h911zM163 247q-12 0 -21 -8.5t-9 -21.5t9 -21.5t21 -8.5q13 0 22 8.5t9 21.5t-9 21.5t-22 8.5zM316 123q-8 -26 -14 -48q-5 -19 -10.5 -37t-7.5 -25t-3 -15t1 -14.5
t9.5 -10.5t21.5 -4h37h67h81h80h64h36q23 0 34 12t2 38q-5 13 -9.5 30.5t-9.5 34.5q-5 19 -11 39h-368zM336 498v228q0 11 2.5 23t10 21.5t20.5 15.5t34 6h188q31 0 51.5 -14.5t20.5 -52.5v-227h-327z" />
    <glyph glyph-name="wenzhang" unicode="&#xe600;" horiz-adv-x="1138" 
d="M0 896h1138v-796l-268 -228h-870v1024v0zM796 100v114h-626v-114h626zM967 327v114h-797v-114h797zM967 554v115h-797v-115h797z" />
    <glyph glyph-name="shuaxin" unicode="&#xe601;" horiz-adv-x="1000" 
d="M632 101q-73 -51 -163 -50q-8 0 -23 1q-2 0 -9 1l-18 3q-1 0 -10 2q-11 3 -17 5q-1 0 -4 1t-4 1q-10 4 -19 7l-4 2q-13 6 -21 10l-0.5 0.5l-0.5 0.5q-36 19 -64 47v0.5t-1 0.5q-9 10 -16 19q-2 2 -3 4q-61 76 -61 173h73l-117 176l-118 -176h74q0 -113 64 -207
q1 -1 1.5 -2l0.5 -1q2 -4 13 -17q1 -2 3 -4t2 -3q8 -9 21 -23q2 -1 2 -2q37 -37 83 -62h1l1 -1q13 -7 27 -13q1 -1 3 -2t4 -1q8 -3 23 -9q7 -2 12 -4q10 -3 21 -5q13 -3 14 -3q5 -2 6 -2q4 0 21 -2q5 -1 7 -2q20 -1 37 -1q115 0 209 66q15 11 18.5 28.5t-7.5 32.5
q-10 15 -28 18.5t-33 -7.5zM839 329q0 114 -65 207q0 1 -0.5 2l-0.5 1q-7 9 -17 21q0 1 -1 3q-57 68 -137 103q-1 0 -2.5 0.5t-2.5 0.5q-9 4 -26 10q-8 3 -9 3q-9 3 -23 6q-2 0 -6 1t-7 2q-1 0 -3 0.5t-3 0.5q-3 1 -18 3q-2 0 -5.5 0.5t-6.5 0.5q-12 1 -29 2h-2h-3h-1
q-115 0 -209 -66q-15 -11 -18 -29t7.5 -33t28.5 -18t32 8q73 51 162 50q13 0 25 -2h7q13 -2 20 -4q1 0 8 -1q12 -3 19 -5l6 -2q12 -4 21 -8l1 -0.5l1 -0.5q62 -26 105 -79h1q63 -77 63 -177h-74l118 -176l117 176h-73z" />
    <glyph glyph-name="caidan" unicode="&#xe645;" horiz-adv-x="1000" 
d="M0 800h1000v-1000h-1000v1000v0zM778 578h-556q-23 0 -39 -16.5t-16 -39.5t16 -39t39 -16h556q23 0 39 16t16 39t-16 39.5t-39 16.5v0zM778 356h-556q-23 0 -39 -16.5t-16 -39.5t16 -39.5t39 -16.5h556q23 0 39 16.5t16 39.5t-16 39.5t-39 16.5v0zM778 133h-556
q-23 0 -39 -16t-16 -39t16 -39.5t39 -16.5h556q23 0 39 16.5t16 39.5t-16 39t-39 16v0zM778 133z" />
    <glyph glyph-name="pinglun" unicode="&#xe602;" horiz-adv-x="1000" 
d="M500 -13q-40 0 -85 7l-204 -194v263q-98 56 -154.5 143t-56.5 188q0 110 67 203.5t182 148t251 54.5t251 -54.5t182 -148t67 -204t-67 -204t-182 -148t-251 -54.5v0zM237 487q-33 0 -56 -27t-23 -66t23 -66.5t56 -27.5t56 27.5t23 66.5t-23 66t-56 27v0zM500 487
q-33 0 -56 -27t-23 -66t23 -66.5t56 -27.5t56 27.5t23 66.5t-23 66t-56 27v0zM763 487q-33 0 -56 -27t-23 -66t23 -66.5t56 -27.5t56 27.5t23 66.5t-23 66t-56 27v0zM763 487z" />
    <glyph glyph-name="qingchuhuancun" unicode="&#xe603;" horiz-adv-x="1000" 
d="M485 691q-111 0 -204.5 -54t-147.5 -147.5t-54 -203.5t54 -203.5t147.5 -148t204 -54.5t204 54.5t147.5 148t54 203.5h-405v405zM546 753v-406h405q0 110 -54 203.5t-147.5 148t-203.5 54.5z" />
    <glyph glyph-name="weixin" unicode="&#xe604;" horiz-adv-x="1000" 
d="M352 435q12 0 19.5 7.5t7.5 20.5t-7.5 20.5t-19.5 7.5q-14 0 -24 -8t-10 -20t10 -20t24 -8zM507 491q-13 0 -23 -8t-10 -20t10 -20t23 -8t20.5 7.5t7.5 20.5t-7.5 20.5t-20.5 7.5zM702 282q13 0 20.5 7t7.5 16t-8 15.5t-20 6.5q-8 0 -15 -7t-7 -15.5t7 -15.5t15 -7z
M580 282q12 0 20 7t8 16t-8 15.5t-20 6.5q-8 0 -15 -7t-7 -15.5t7 -15.5t15 -7zM77 316.5q0 -89.5 34.5 -171t93.5 -140t140.5 -93.5t170.5 -35t170.5 35t140 93.5t93.5 140t35 171t-35 170.5t-93.5 140t-140 93.5t-170.5 34.5t-170.5 -34.5t-140.5 -93.5t-93.5 -140
t-34.5 -170.5zM627 430q-79 0 -134 -52.5t-55 -126.5q0 -23 7 -47q-11 -1 -21 -1q-22 0 -78 11l-78 -39l22 68q-89 63 -89 152q0 80 65.5 136t157.5 56q82 0 146 -45t79 -113q-12 1 -22 1zM831 254q0 -71 -78 -130l16 -56l-61 33q-44 -11 -67 -11q-79 0 -134 48t-55 116
t55 116t134 48q76 0 133 -48.5t57 -115.5z" />
    <glyph glyph-name="tianjiayonghu" unicode="&#xe643;" 
d="M896 274h-83v81q0 26 -18.5 44t-45 18t-45.5 -18t-19 -44v-81h-82q-27 0 -45.5 -18.5t-18.5 -44t18.5 -44t45.5 -18.5h82v-81q0 -26 19 -44t45.5 -18t45 18t18.5 44v81h83q27 0 45.5 18.5t18.5 44t-18.5 44t-45.5 18.5zM398 398q69 0 118 48t49 115.5t-49 115.5t-118 48
t-118 -48t-49 -115.5t49 -115.5t118 -48zM591 78q-4 0 -9.5 -0.5t-21.5 1t-30 5t-31 13t-28.5 23t-18.5 36.5t-4 53q6 77 87 100q-66 43 -140 43q-90 0 -166 -60.5t-120.5 -165t-44.5 -227.5q0 -11 1 -24h660q1 12 1 24q0 17 -1 36q-17 0 -33 3t-35.5 12.5t-33.5 24.5
t-23.5 41.5t-8.5 61.5z" />
    <glyph glyph-name="tianjia" unicode="&#xe666;" 
d="M896 236h-320v-320h-128v320h-320v128h320v320h128v-320h320v-128z" />
    <glyph glyph-name="caidan1" unicode="&#xe646;" 
d="M872 675q28 0 47.5 -19.5t19.5 -47.5v-51q0 -28 -19.5 -47.5t-47.5 -19.5h-742q-28 0 -47.5 19.5t-19.5 47.5v51q0 28 19.5 47.5t47.5 19.5h742zM872 362q28 0 47.5 -19.5t19.5 -47.5v-51q0 -28 -19.5 -47.5t-47.5 -19.5h-742q-28 0 -47.5 19.5t-19.5 47.5v51
q0 28 19.5 47.5t47.5 19.5h742zM872 49q28 0 47.5 -19.5t19.5 -47.5v-51q0 -28 -19.5 -47.5t-47.5 -19.5h-742q-28 0 -47.5 19.5t-19.5 47.5v51q0 28 19.5 47.5t47.5 19.5h742z" />
    <glyph glyph-name="sousuo" unicode="&#xe667;" 
d="M961 -104l-272 272q86 100 86 231q0 97 -47.5 178.5t-129.5 129.5t-178.5 48t-178.5 -48t-129.5 -129.5t-47.5 -178t47.5 -178.5t129.5 -129.5t178 -47.5q115 0 208 67l275 -274zM106 399.5q0 129.5 92 221.5t221.5 92t221.5 -92t92 -221.5t-92 -221.5t-221.5 -92
t-221.5 92t-92 221.5z" />
    <glyph glyph-name="exit" unicode="&#xe62c;" 
d="M1024 288l-256 256v-192h-416q-13 0 -22.5 -9.5t-9.5 -22.5v-64q0 -13 9.5 -22.5t22.5 -9.5h416v-192zM609 32h-64q-13 0 -22.5 -9.5t-9.5 -22.5v-97h-384v768h384v-96q0 -13 9.5 -22.5t22.5 -9.5h64q13 0 22.5 9.5t9.5 22.5v192q0 13 -9.5 22.5t-22.5 9.5h-578
q-12 0 -21 -9t-9 -21v-964q0 -12 9 -21t21 -9h516q4 0 8 1h54q13 0 22.5 9.5t9.5 22.5v192q0 13 -9.5 22.5t-22.5 9.5z" />
    <glyph glyph-name="home" unicode="&#xe607;" 
d="M1024 204l-192 192v288h-128v-160l-192 192l-512 -512v-32h128v-320h320v192h128v-192h320v320h128v32z" />
    <glyph glyph-name="QQ" unicode="&#xe608;" 
d="M971 143l-2 18l-3 17l-3 9l-2 9l-3 9l-4 10l-3 10l-4 9l-8 16l-6 14l-7 13l-5 11l-7 11l-5 9l-10 15l-12 19l-3 5l-1 2v1l2 7l3 6l2 11l2 6v6v5v5v6l-1 4l-2 10l-2 9l-3 8l-3 8l-4 7l-3 7l-3 6l-6 9l-2 3v2l-3 18l-1 11l-2 14l-3 15l-4 17l-3 9l-2 8l-3 9l-3 10l-3 9
l-4 10l-8 19l-5 9l-6 10l-5 9l-6 10l-7 10l-7 8l-8 10l-8 8l-8 8l-9 9l-5 3l-5 4l-11 7l-12 8l-12 7l-13 7l-13 6l-13 6l-14 4l-15 4l-13 4l-15 3l-13 4l-15 1l-14 2l-15 2h-15h-14h-14l-14 -1l-14 -2l-14 -2l-13 -2l-14 -3l-13 -3l-13 -4l-12 -4l-12 -4l-12 -6l-12 -5
l-10 -6l-10 -6l-10 -7l-10 -8l-8 -7l-12 -12l-10 -10l-10 -11l-9 -11l-9 -11l-7 -10l-7 -11l-4 -5l-3 -6l-7 -10l-5 -10l-5 -10l-4 -10l-4 -9l-3 -9l-3 -9l-4 -8l-4 -16l-3 -15l-1 -12l-2 -11v-8v-7v-6l-3 -3l-3 -4l-2 -4l-2 -4l-2 -9l-3 -9v-7l-1 -6v-6l-6 -8l-4 -9l-3 -8
l-2 -7l-2 -7l-2 -6v-6v-6v-5l1 -4l2 -7l1 -6l-3 -3l-9 -6l-12 -11l-7 -7l-7 -6l-5 -5l-4 -5l-9 -9l-8 -10l-7 -8l-8 -11l-7 -11l-7 -12l-7 -11l-5 -11l-5 -11l-4 -10l-4 -11l-3 -11l-3 -11l-3 -10l-2 -10l-1 -9l-2 -10l-1 -18v-17v-7l1 -7l2 -13l1 -6l2 -5l2 -6l1 -3l3 -7
l2 -2l2 -3h1h1h1h7l7 2l7 3l6 4l6 4l5 5l6 5l5 6l5 6l4 6l4 4l2 6l5 8l2 4l1 2v3l1 2h1l2 1h1v-1h1h1l3 -12l2 -10l4 -10l4 -9l4 -9l5 -8l4 -9l4 -7l5 -7l3 -6l10 -12l9 -11l8 -8l8 -7l7 -6l11 -10l4 -2l2 -2v-1l-1 -1h-1h-2l-8 -1l-7 -1l-6 -1l-7 -1l-5 -2l-6 -2l-5 -2
l-4 -3l-5 -1l-3 -3l-3 -2l-4 -3l-4 -5l-2 -3l-2 -2l-3 -6l-2 -5l-1 -5l-1 -4v-6v-3l-1 -4v-4l-1 -4v-3l1 -4l1 -4l2 -7l2 -3l2 -3l2 -3l3 -3l3 -3l2 -3l7 -5l8 -4l8 -5l9 -3l9 -4l11 -2l10 -4l11 -2l12 -2l11 -2l12 -1l24 -3h24h23h10h10h11l9 1l9 1l8 1l13 2l9 3l9 2l17 7
l8 3l7 3l12 7l10 6l8 5l6 5l9 -1l7 -1l14 -1h6h6l4 -1l4 -1l7 -3l8 -2l14 -5l15 -5l14 -4l14 -3l15 -4l15 -2l15 -2l14 -2l14 -1l15 -1h13h14h13l13 1l13 1l12 2l11 3l11 2l11 3l5 1l5 2l9 3l8 4l8 4l8 4l6 5l3 3l3 4l4 4l4 6l1 3l1 3l2 3l1 3v4l1 3l-1 5l-1 4l-2 5l-1 4
l-3 5l-3 5l-3 3l-4 4l-9 7l-10 8l-10 5l-10 6l-23 12l-6 3l-2 2l-1 1l12 11l5 6l4 5l8 12l7 11l6 11l6 10l8 20l7 16l4 12l2 4l2 3l2 2h1h1l6 -12l5 -12l4 -7l4 -5l4 -7l5 -7l4 -5l3 -2l2 -3l2 -1l3 -2l4 -2l3 -1h2h2l2 1l4 1l3 2l3 2l3 3l3 4l2 3l3 5l2 3l2 6l2 4l3 11
l2 12l2 14l1 8v6v7v9z" />
    <glyph glyph-name="11" unicode="&#xe669;" 
d="M922 -91l-294 294q75 87 71.5 203.5t-86.5 198.5q-86 87 -209 87t-209.5 -86.5t-86.5 -209.5t86.5 -209.5t209.5 -86.5q111 0 195 74l294 -294zM404 139q-106 0 -181.5 75.5t-75.5 181.5t75.5 181t181.5 75t181 -75t75 -181t-75 -181.5t-181 -75.5z" />
    <glyph glyph-name="shanchu" unicode="&#xe6d3;" 
d="M694 580q17 -2 51 -1.5t46 -1.5q34 -6 50 -33t13 -69h-55v-299q0 -16 0.5 -48t0.5 -56.5t-2 -44.5q-4 -31 -24.5 -50.5t-50.5 -24.5q-17 -3 -38 -3.5t-50.5 0.5t-40.5 1q-30 0 -83.5 -0.5t-97 -0.5t-81.5 1q-63 1 -91 40q-3 4 -5.5 8.5t-4.5 10t-3 10t-2 12t-1.5 11.5
t-0.5 14v13v14.5v14.5v377h-52q-6 38 8.5 64.5t43.5 36.5q12 4 30.5 4.5t35.5 -0.5t38 0q-2 49 6.5 74.5t41.5 29.5q10 1 22.5 1t28.5 -0.5t25 -0.5h152h17.5h18t14 -1t15 -3.5t9.5 -5.5q6 -5 9.5 -13t5 -18.5t1.5 -19v-22.5v-21zM380 629v-51h262v53h-261q-1 0 -1 -2z
M329 469v-319q0 -5 -0.5 -18.5t-0.5 -24t0.5 -22.5t3.5 -20.5t7 -11.5q5 -4 15 -4t16 4q5 3 8 11.5t3.5 20t0.5 21.5t-0.5 24t-0.5 19v322h-51q-1 0 -1 -2zM485 469v-309q0 -3 -1 -30t0 -44t5 -25q5 -8 18 -10.5t21 3.5q5 3 7 11.5t2.5 21t0.5 23t-0.5 24t-0.5 18.5v319h-51
q-1 0 -1 -2zM642 469v-323q0 -6 -0.5 -21t-0.5 -24t1.5 -20.5t5 -18t9.5 -9.5q8 -3 17.5 -1.5t12.5 4.5q5 4 7 17t2 26t-0.5 31.5t-0.5 22.5v318h-52q-1 0 -1 -2z" />
    <glyph glyph-name="chatlist" unicode="&#xe605;" 
d="M512.5 698q107.5 0 199.5 -45.5t144.5 -122t52.5 -164.5q0 -84 -49 -156.5t-134.5 -116.5t-188.5 -49q-20 -43 -61 -71t-107 -46q48 58 51 125q-133 26 -219 113.5t-86 200.5q0 88 53 164.5t145 122t199.5 45.5zM513 748q-90 0 -172 -30q-80 -29 -142 -81
q-63 -53 -98 -121q-36 -72 -36 -150q0 -67 27 -129q26 -59 74 -108q47 -47 109 -79q42 -22 88 -36q-9 -26 -33 -54q-10 -13 -11 -29.5t7 -30.5q15 -23 43 -23q6 0 13 2q75 20 122 52q39 28 64 65q157 16 266 111q59 50 91 116q34 68 34 143q0 78 -36 150q-35 68 -97 121
q-62 52 -141 81q-83 30 -172 30v0zM337 317q-21 0 -35.5 14.5t-14.5 35.5t14.5 36t35.5 15t36 -15t15 -36t-15 -35.5t-36 -14.5zM530.5 317q-20.5 0 -35.5 14.5t-15 35.5t15 36t35.5 15t35.5 -15t15 -36t-15 -35.5t-35.5 -14.5zM719 317q-21 0 -36 14.5t-15 35.5t15 36
t36 15t35.5 -15t14.5 -36t-14.5 -35.5t-35.5 -14.5z" />
    <glyph glyph-name="mima" unicode="&#xe61b;" 
d="M791 341l-459 1q0 11 -1.5 39.5t-1 47.5t3 44.5t11.5 46.5t24 38q27 30 65.5 51t78.5 21q62 0 109 -40.5t72 -103.5q7 -19 14.5 -27.5t21.5 -8.5q22 -1 32.5 12.5t8.5 30t-5 29.5q-70 180 -253 180q-63 0 -103 -15.5t-77 -56.5q-18 -20 -31.5 -45.5t-21 -51t-12 -53
t-5.5 -52t-2 -47.5t0 -39l-27 -1q-18 0 -31.5 -13t-13.5 -32v-378q0 -19 13.5 -32t31.5 -13h558q19 0 32.5 13t13.5 32v378q0 19 -13.5 32t-32.5 13v0zM766 -18q0 -15 -10.5 -25.5t-25.5 -10.5h-434q-15 0 -25.5 10.5t-10.5 25.5v252q0 15 10.5 25.5t25.5 10.5h434
q15 0 25.5 -10.5t10.5 -25.5v-252z" />
    <glyph glyph-name="caidan2" unicode="&#xe6dc;" 
d="M82 92q-29 0 -50.5 -21t-21.5 -49t22 -50t50 -22t49 21.5t21 50.5q0 28 -21 49t-49 21zM82 436q-29 0 -50.5 -21t-21.5 -49t21.5 -49t50.5 -21q28 0 49 21t21 49t-21 49t-49 21zM338 646h606q27 0 46.5 18.5t19.5 45.5t-19.5 46.5t-46.5 19.5h-606q-27 0 -46.5 -19.5
t-19.5 -46.5t19.5 -45.5t46.5 -18.5zM82 782q-28 0 -50 -22t-22 -50t21.5 -49t50.5 -21q28 0 49 21t21 49q0 29 -21 50.5t-49 21.5zM944 432h-606q-27 0 -46.5 -19.5t-19.5 -46.5t19.5 -46.5t46.5 -19.5h606q27 0 46.5 19.5t19.5 46.5t-19.5 46.5t-46.5 19.5zM944 88h-606
q-27 0 -46.5 -19.5t-19.5 -46.5t19.5 -46.5t46.5 -19.5h606q27 0 46.5 19.5t19.5 46.5t-19.5 46.5t-46.5 19.5z" />
    <glyph glyph-name="yonghu" unicode="&#xe620;" 
d="M438 735q93 0 158.5 -64t65.5 -155.5t-65.5 -156t-158.5 -64.5t-158.5 64.5t-65.5 156t65.5 155.5t158.5 64zM438 735q93 0 158.5 -64t65.5 -155.5t-65.5 -156t-158.5 -64.5t-158.5 64.5t-65.5 156t65.5 155.5t158.5 64zM354 222h187q119 0 204 -83.5t85 -200.5v-19
q0 -15 -9.5 -26t-31 -18t-43.5 -11t-60 -6t-67.5 -2.5t-77.5 -0.5h-187q-52 0 -78 0.5t-66.5 2t-61 5.5t-43 11t-31.5 18.5t-9 26.5v19q0 117 84.5 200.5t204.5 83.5zM748 643h209q5 0 8.5 -3.5t3.5 -8.5v-69q0 -5 -3.5 -8.5t-8.5 -3.5h-209q-4 0 -7.5 3.5t-3.5 8.5v69
q0 5 3.5 8.5t7.5 3.5zM818 712h69q5 0 8.5 -3t3.5 -8v-209q0 -5 -3.5 -8t-8.5 -3h-69q-5 0 -8.5 3t-3.5 8v209q0 5 3.5 8t8.5 3z" />
    <glyph glyph-name="shezhi" unicode="&#xe64c;" 
d="M424 747q-100 0 -178 -44q1 -4 1 -6t-1 -6.5t-1 -6.5q-1 -6 1 -12t7.5 -13.5t8.5 -11t13.5 -13.5t13.5 -13q110 -110 133 -136q-9 -8 -43.5 -43t-52.5 -52q-24 23 -71 71.5t-62 63.5q-4 4 -14 15t-17 17t-14 10q-5 3 -19.5 1t-19.5 -1q-55 -104 -42 -216q12 -109 89 -195
q78 -87 194 -109q99 -19 196 15q21 -20 58 -56t54 -53q5 -6 24.5 -26.5t28.5 -29t25.5 -20t30.5 -16.5q48 -18 102.5 2t78.5 76q15 34 11 73q-4 41 -25 67v0q-8 12 -56 58v0q-8 8 -27 26t-29 28l-26.5 26.5l-24.5 24.5q-5 5 -16.5 17.5t-19.5 20t-16 11.5q-22 10 -40.5 -9.5
t-8.5 -40.5q3 -8 10.5 -16.5t20 -19.5t17.5 -16q17 -17 52.5 -51.5t51.5 -51.5q3 -2 5 -5v0h1q1 -2 7 -8.5t10 -9.5q34 -36 38 -46v0v0v0q0 -1 1 -1q6 -21 -1.5 -41.5t-24 -32.5t-37.5 -15.5t-40 8.5q-5 3 -9.5 8t-10.5 11.5t-9 10.5q-19 18 -88.5 86.5t-102.5 101.5
q-50 -27 -100.5 -36.5t-104 2t-101.5 45.5q-76 54 -105 149q-25 78 -3 152l123 -124q5 -4 13.5 -13.5t14.5 -15.5t13 -10q5 -2 10.5 -3t11.5 1t10 4t11 8t10 9l11.5 11.5l11.5 11.5l43 43q4 4 27 25t37 36.5t17 26.5q2 3 2 6.5v6.5t-1.5 7t-3 6.5t-4.5 6.5l-4.5 6t-5.5 6.5
t-6 6t-6.5 6.5t-6.5 7q-73 73 -125 126q142 33 249 -56q53 -45 77.5 -103.5t22.5 -113.5q0 -3 -0.5 -9.5t-0.5 -11.5t1 -9q10 -22 32.5 -25t36.5 17q5 8 5 44q0 122 -83 223q-56 66 -125.5 95.5t-140.5 29.5z" />
    <glyph glyph-name="iconfontzhuce" unicode="&#xe639;" 
d="M865 811h-705q-40 0 -68 -28t-28 -68v-830q0 -40 28 -68t68 -28h705q39 0 67 28t28 68v830q0 40 -28 68t-67 28zM869 -123h-714v846h714v-846zM256 237h509v-64h-509v64zM256 109h509v-64h-509v64zM415.5 445q39.5 0 67.5 28t28 67.5t-28 68t-67.5 28.5t-67.5 -28.5
t-28 -68t28 -67.5t67.5 -28zM575 365q0 26 -28 45t-68 19h-128q-39 0 -67 -19t-28 -45v-64h319v64z" />
    <glyph glyph-name="shanchu1" unicode="&#xe692;" 
d="M479 51v13q0 5 1 13h-221q-23 0 -39.5 16t-16.5 39t16.5 40t39.5 17h261q34 52 90 83.5t123 31.5q7 0 15 -0.5t16 -1.5v222h-131q-25 0 -43 11.5t-29 28t-16.5 36t-5.5 36.5v112h-253h-90h-72q-14 0 -23.5 -9.5t-9.5 -23.5v-82v-31v-548v0v-113q0 -14 9.5 -24t23.5 -10
h80h2h318q-21 31 -33 67t-12 77zM219.5 396q16.5 16 39.5 16h336q23 0 39.5 -16t16.5 -39t-16.5 -40t-39.5 -17h-336q-23 0 -39.5 17t-16.5 40t16.5 39zM917.5 126q-15.5 36 -42.5 62.5t-62.5 42.5t-77.5 16q-40 0 -75.5 -16t-62.5 -42.5t-43 -62.5t-16 -76q0 -41 16 -77
t43 -63t62.5 -42.5t75.5 -15.5q42 0 77.5 15.5t62.5 42.5t42.5 62.5t15.5 77.5q0 40 -15.5 76zM834 -11q8 -8 8 -20t-8 -20t-19.5 -8t-19.5 8l-60 60l-60 -60q-8 -8 -19.5 -8t-19.5 8t-8 20t8 20l59 60l-59 59q-8 8 -8 19.5t8 19.5t19.5 8t19.5 -8l60 -59l60 59q8 8 19.5 8
t19.5 -8t8 -19.5t-8 -19.5l-59 -59zM663 582v0h101v14v119q0 14 -10 23.5t-23 9.5h-133h-2v0v-99q0 -28 19.5 -47.5t47.5 -19.5z" />
    <glyph glyph-name="tags" unicode="&#xe66a;" 
d="M832 295l-391 392l-377 -2l1 -346l405 -406q19 -19 45.5 -19t45.5 19l272 271q18 19 18 45.5t-19 45.5zM226.5 462q-26.5 0 -45 18.5t-18.5 45t18.5 45.5t45 19t45.5 -19t19 -45.5t-19 -45t-45.5 -18.5zM923 295l-391 391h-47l392 -391q20 -19 20 -45.5t-19 -45.5
l-271 -272q-10 -9 -23 -14q39 -15 68 14l272 271q19 19 18.5 46t-19.5 46z" />
    <glyph glyph-name="shezhi1" unicode="&#xe64d;" 
d="M895 364h-102q-11 48 -37 89l72 72q19 19 19 45.5t-19 45.5t-45.5 19t-45.5 -19l-72 -72q-41 26 -89 37v102q0 26 -18.5 45t-45.5 19t-45.5 -19t-18.5 -45v-102q-48 -11 -89 -37l-72 72q-19 19 -45.5 19t-45.5 -19t-19 -45.5t19 -45.5l72 -72q-26 -41 -37 -89h-102
q-26 0 -45 -18.5t-19 -45.5t19 -45.5t45 -18.5h102q11 -48 37 -89l-72 -72q-19 -19 -19 -45.5t19 -45.5t45.5 -19t45.5 19l72 72q41 -26 89 -37v-102q0 -26 18.5 -45t45.5 -19t45.5 19t18.5 45v102q48 11 89 37l72 -72q19 -19 45.5 -19t45.5 19t19 45.5t-19 45.5l-72 72
q26 41 37 89h102q26 0 45 18.5t19 45.5t-19 45.5t-45 18.5zM512 109q-79 0 -135 56t-56 135t56 135t135 56t135 -56t56 -135t-56 -135t-135 -56z" />
    <glyph glyph-name="daohang" unicode="&#xe606;" 
d="M559 -79h-4q-9 2 -16 8.5t-8 16.5l-56 402l-401 56q-10 1 -17 8t-8 17q-3 21 17 30l866 385q19 8 33 -6t6 -32l-385 -868q-8 -17 -27 -17zM182 447l322 -45q10 -2 16.5 -8.5t8.5 -16.5l45 -323l313 707z" />
    <glyph glyph-name="denglu" unicode="&#xe609;" 
d="M852 -41h-567q-47 0 -80 33t-33 80v114h57v-114q0 -23 16.5 -39.5t39.5 -16.5h567q24 0 40.5 16.5t16.5 39.5v624q0 23 -16.5 39.5t-40.5 16.5h-567q-23 0 -39.5 -16.5t-16.5 -39.5v-114h-57v114q0 47 33 80t80 33h567q47 0 80.5 -33t33.5 -80v-624q0 -47 -33.5 -80
t-80.5 -33zM607 561q-9 8 -9 20t8.5 20t20.5 8t20 -8l195 -196q9 -8 8 -21q1 -13 -8 -21l-195 -196q-8 -8 -20 -8t-20.5 8t-8.5 20t9 20l148 149h-668q-12 0 -20.5 8t-8.5 20t8.5 20t20.5 8h668z" />
    <glyph glyph-name="sousuo1" unicode="&#xe6ab;" 
d="M798 377q0 -134 -87 -237q195 -195 232 -231q21 -20 7 -40q-13 -20 -38 -5q-6 4 -12 11q-24 25 -229 226v0q-102 -88 -237 -88q-99 0 -183 48.5t-133 132.5t-49 183t49 183t133 133t183 49t183 -49t132.5 -133t48.5 -183zM434 684q-127 0 -217 -90t-90 -217t90 -217
t217 -90t217 90t90 217t-90 217t-217 90z" />
    <glyph glyph-name="huishouzhan" unicode="&#xe656;" 
d="M231 -7q0 -42 30 -72.5t72 -30.5h358q42 0 72.5 30.5t30.5 72.5v409h-563v-409zM615 326q0 10 7.5 17.5t18 7.5t18 -7.5t7.5 -17.5v-307q0 -11 -7.5 -18.5t-18 -7.5t-18 7.5t-7.5 18.5v307zM487 326q0 10 7.5 17.5t18 7.5t18 -7.5t7.5 -17.5v-307q0 -11 -7.5 -18.5
t-18 -7.5t-18 7.5t-7.5 18.5v307zM359 326q0 10 7.5 17.5t18 7.5t18 -7.5t7.5 -17.5v-307q0 -11 -7.5 -18.5t-18 -7.5t-18 7.5t-7.5 18.5v307zM793 607h-153v51q0 21 -15 36t-36 15h-154q-21 0 -36 -15t-15 -36v-51h-153q-22 0 -36.5 -15t-14.5 -36v-51q0 -22 14.5 -37
t36.5 -15h562q22 0 37 15t15 37v51q0 21 -15 36t-37 15zM589 607h-154v26q0 10 7.5 17.5t18.5 7.5h102q11 0 18.5 -7.5t7.5 -17.5v-26z" />
    <glyph glyph-name="tianjia1" unicode="&#xe66b;" 
d="M283 -135v202h-200zM797 155v151h-100v-151h-151v-101h151v-138h100v138h138v101h-138zM647 4h-76q-26 0 -44 18.5t-18 44.5v75q0 27 18 45t44 18h76v76q0 26 18 44.5t44 18.5q6 0 13 -1v392q0 5 -4 8.5t-9 3.5h-589q-5 0 -8.5 -3.5t-3.5 -8.5v-630q0 3 1.5 3t5 -1.5
t5.5 -1.5h188q5 0 9 -4t4 -9v-189q0 -3 1.5 -6.5t1.5 -4.5t-3 -1h331q-5 12 -5 25v88zM168 662q0 6 4 10t10 4h469q6 0 10 -4t4 -10v-14q0 -6 -4 -10t-10 -4h-469q-6 0 -10 4t-4 10v14zM168 563q0 5 4 9.5t10 4.5h469q6 0 10 -4.5t4 -9.5v-15q0 -6 -4 -10t-10 -4h-469
q-6 0 -10 4t-4 10v15zM168 463q0 6 4 10t10 4h469q6 0 10 -4t4 -10v-14q0 -6 -4 -10t-10 -4h-469q-6 0 -10 4t-4 10v14zM452 350q0 -15 -8 -15h-268q-8 0 -8 15v14q0 14 8 14h268q8 0 8 -14v-14z" />
    <glyph glyph-name="circularrefresh" unicode="&#xe6ad;" 
d="M512 780q-98 0 -186.5 -38t-153 -102.5t-102.5 -153t-38 -186.5t38 -186.5t102.5 -153t153 -102.5t186.5 -38t186.5 38t153 102.5t102.5 153t38 186.5t-38 186.5t-102.5 153t-153 102.5t-186.5 38zM512 -52q-86 0 -159 42.5t-116 115.5t-43 159.5t43 159.5t116 115.5
t159 42.5v0v69l166 -110l-166 -111v69v0q-97 0 -166 -69t-69 -166t69 -165.5t166 -68.5t166 68.5t69 166.5q0 17 12 29t29 12t29 -12t12 -29q0 -87 -42.5 -160t-115.5 -115.5t-159 -42.5z" />
    <glyph glyph-name="diannao" unicode="&#xe62b;" 
d="M823 125h-619q-37 0 -63 26t-26 63v442q0 37 26 63t63 26h619q36 0 62 -26t26 -63v-442q0 -37 -26 -63t-62 -26zM823 656h-619v-442h619v442zM292 37h442q19 0 31.5 -13t12.5 -31v-44h-44h-442h-44v44q0 18 13 31t31 13z" />
    <glyph glyph-name="llalbumshopselectorcreate" unicode="&#xe66c;" 
d="M509.5 754q-91.5 0 -175 -35.5t-143.5 -95.5t-95.5 -143.5t-35.5 -175t35.5 -175t95.5 -143.5t143.5 -95.5t175 -35.5t175 35.5t143.5 95.5t95.5 143.5t35.5 175t-35.5 175t-95.5 143.5t-143.5 95.5t-175 35.5zM509.5 -85q-105.5 0 -195.5 52t-142 142t-52 195.5
t52 195.5t142 142t195.5 52t195.5 -52t142 -142t52 -195.5t-52 -195.5t-142 -142t-195.5 -52zM727 319h-187v188q0 9 -7 15.5t-16 6.5h-15q-9 0 -15.5 -6.5t-6.5 -15.5v-188h-188q-9 0 -15.5 -6.5t-6.5 -15.5v-15q0 -9 6.5 -16t15.5 -7h188v-187q0 -9 6.5 -15.5t15.5 -6.5
h15q9 0 16 6.5t7 15.5v187h187q9 0 16 7t7 16v15q0 9 -7 15.5t-16 6.5z" />
    <glyph glyph-name="daohang1" unicode="&#xe784;" 
d="M512 -148q-91 0 -174 35.5t-143 95.5t-95.5 143t-35.5 174t35.5 174t95.5 143t143 95.5t174 35.5t174 -35.5t143 -95.5t95.5 -143t35.5 -174t-35.5 -174t-95.5 -143t-143 -95.5t-174 -35.5zM512 664q-99 0 -183 -48.5t-132.5 -132.5t-48.5 -183t48.5 -183t132.5 -132.5
t183 -48.5t183 48.5t132.5 132.5t48.5 183t-48.5 183t-132.5 132.5t-183 48.5zM414 216l-126 308l322 -126l126 -322v0zM512 342q-17 0 -29.5 -12.5t-12.5 -29.5t12.5 -29.5t29.5 -12.5t29.5 12.5t12.5 29.5t-12.5 29.5t-29.5 12.5z" />
    <glyph glyph-name="iconfuzhi01" unicode="&#xe60a;" 
d="M408 272v7h-1l1 7v12v0q3 55 14 90l6 19l19 -5q70 -19 127 -19q2 4 3 8q7 3 15 9q6 6 12 16.5t7 28.5q2 14 0 23t-6 15q-3 7 -9 10q0 33 -4 67q-4 28 -14 60t-32 59q-10 12 -24.5 23.5t-34 21t-41.5 15t-47 5.5q-18 0 -39 -3t-41 -11.5t-39.5 -23t-35.5 -38.5
q-17 -24 -25.5 -54t-12.5 -57q-4 -31 -3 -63q-7 -9 -10 -18q-3 -8 -4.5 -19.5t2.5 -26t9.5 -22t10.5 -11.5q6 -4 12 -6q5 -14 9 -26q4 -11 9 -21.5t12 -16.5q14 -11 26 -22t13 -30q1 -13 1 -24t-4 -21.5t-13.5 -20t-26.5 -20.5q-22 -14 -51 -21.5t-56 -17t-48 -25.5t-26 -46
q-7 -54 -2.5 -88.5t12.5 -41.5q6 -4 24.5 -9t45 -10t58.5 -10t65.5 -9t64.5 -6.5t55.5 -2.5t57.5 2t68 6q13 2 29 4q-3 2 -5 4q-133 112 -133 354v0zM827 243q-59 0 -124 23q-63 -23 -122 -23q-57 0 -131 17q0 -219 118 -319q37 -31 76.5 -56.5t58.5 -25.5t59 26t77 57
q118 99 119 318q-77 -17 -131 -17zM769 -4l-65 40l-66 -40l23 72l-56 52h72l27 66l26 -66h72l-55 -52zM699 288l4 1l4 -1q4 -2 18 -6.5t45 -11t57 -6.5q54 0 130 18q-1 22 -4 42.5t-5 29.5l-3 10q-70 -19 -127 -19q-25 0 -53.5 6t-45.5 12l-16 6q-57 -24 -114 -24
q-16 0 -35 2t-34.5 4.5t-29 5.5t-20.5 5l-8 2q-10 -32 -12 -82q75 -18 131 -18q59 0 118 24zM531 310z" />
    <glyph glyph-name="home1" unicode="&#xe6b1;" 
d="M1024 208l-512 397l-512 -397v162l512 397l512 -397v-162zM896 222v-384h-256v256h-256v-256h-256v384l384 288z" />
    <glyph glyph-name="sousuo2" unicode="&#xe66d;" 
d="M126 346.5q0 93.5 46 172.5t125 125t172.5 46t172.5 -46t125 -125t46 -172.5t-46 -172.5t-125 -125t-172.5 -46t-172.5 46t-125 125t-46 172.5zM723 33l182 -183l53 53l-182 182q97 113 97 261q0 110 -54 203t-147 147t-202.5 54t-202.5 -54t-147 -147t-54 -202.5
t54 -202.5t147 -147t202 -54q143 0 254 90z" />
    <glyph glyph-name="refurbish" unicode="&#xe754;" 
d="M927 268v20q0 113 -55.5 209t-151 151.5t-208.5 55.5q-118 0 -218 -62q-25 -14 -25 -42q0 -20 14 -34t34 -14q15 0 27 9q77 47 168 47q87 0 160.5 -43t116.5 -116.5t43 -160.5q0 -10 -1 -20h-93l143 -205l143 205h-97zM707 24q-15 0 -27 -9q-77 -47 -168 -47
q-87 0 -160.5 43t-116.5 116.5t-43 160.5q0 10 1 20h93l-143 205l-143 -205h97v-20q0 -113 55.5 -209t151 -151.5t208.5 -55.5q118 0 218 62q25 14 25 42q0 20 -14 34t-34 14z" />
    <glyph glyph-name="iconfontsousuo1" unicode="&#xe66e;" 
d="M746 156q-14 -19 -33 -37l220 -216l36 34zM824 389q0 -104 -49 -190.5t-133.5 -135t-185.5 -48.5q-105 2 -189.5 52.5t-131.5 135.5t-47 186q0 97 49.5 180.5t134.5 132.5t184 49t184.5 -49.5t134.5 -133t49 -179.5zM454 702q-131 0 -224 -93t-93 -226t93 -226.5
t224 -93.5q86 0 160 43t117.5 116.5t43.5 160.5t-43.5 160.5t-117.5 116t-160 42.5z" />
    <glyph glyph-name="zhuceguanli" unicode="&#xe726;" 
d="M862 475v156h-116v19q0 40 -28.5 68.5t-68.5 28.5h-385q-40 0 -68.5 -28.5t-28.5 -68.5v-564q0 -8 2 -16h-1q-1 -6 -2.5 -15.5t-3 -34t-0.5 -46t8.5 -47t21.5 -42.5q26 -32 72 -32h405v39h-405q-27 0 -42 18q-25 30 -22 103q28 -24 64 -24h385q40 0 68.5 28.5t28.5 68.5
v156h116v155h-116v78h116zM823 592v-78h-77v78h77zM823 358v-77h-77v77h77zM707 397v-155v-156q0 -24 -17 -41t-41 -17h-385q-24 0 -41 17t-17 41v564q0 24 17 41t41 17h385q24 0 41 -17t17 -41v-19v-156v-78zM322 592h270v-39h-270v39zM322 494h270v-38h-270v38zM611 203
h-39v-39h-38v-39h38v-39h39v39h38v39h-38v39z" />
    <glyph glyph-name="shanchu2" unicode="&#xe66f;" 
d="M1012 689q12 -11 12 -27.5t-12 -27.5l-305 -306q-12 -12 -12 -28t12 -28l305 -306q12 -11 12 -27.5t-12 -27.5l-111 -112q-12 -11 -28 -11t-28 11l-305 306q-12 12 -28 12t-28 -12l-306 -305q-11 -12 -27.5 -12t-27.5 12l-111 111q-12 11 -12 27.5t12 28.5l306 305
q11 12 11 28t-11 28l-306 306q-11 11 -11 27.5t11 27.5l111 112q12 11 28 11t28 -12l305 -305q12 -12 28 -12t28 12l306 305q11 12 27.5 12t27.5 -12l111 -111v0zM1012 689z" />
    <glyph glyph-name="shezhi2" unicode="&#xe64e;" horiz-adv-x="1029" 
d="M990 375h-47q-17 0 -31.5 11t-19.5 27l-27 65q-8 15 -5 33t14 30l33 33q12 11 12 27.5t-12 27.5l-55 56q-12 11 -28 11t-28 -11l-33 -34q-11 -11 -29.5 -13.5t-32.5 4.5l-66 27q-15 5 -26 20t-11 31v47q0 16 -11.5 27.5t-27.5 11.5h-78q-17 0 -28.5 -11.5t-11.5 -27.5
v-47q0 -16 -11 -31t-26 -20l-66 -27q-14 -7 -32 -4.5t-30 13.5l-33 34q-12 11 -28 11t-28 -11l-55 -56q-11 -11 -11 -27.5t11 -27.5l33 -33q12 -12 14.5 -30t-5.5 -33l-26 -65q-5 -16 -20 -27t-31 -11h-47q-16 0 -27.5 -11.5t-11.5 -27.5v-78q0 -16 11.5 -27.5t27.5 -11.5
h47q16 0 31 -11t19 -27l27 -65q8 -14 5.5 -32.5t-14.5 -29.5l-33 -34q-11 -11 -11 -27.5t11 -27.5l55 -56q12 -11 28 -11t28 11l33 34q12 11 30 14t32 -5l66 -27q15 -5 26 -20t11 -31v-47q0 -16 11.5 -27.5t28.5 -11.5h78q16 0 27.5 11.5t11.5 27.5v47q0 16 11 31t26 20
l66 27q14 8 32.5 5t29.5 -14l33 -34q12 -11 28 -11t28 11l55 56q12 11 12 27.5t-12 27.5l-33 34q-11 11 -14 29.5t5 32.5l27 65q5 16 19.5 27t31.5 11h47q16 0 27.5 11.5t11.5 27.5v78q0 16 -11.5 27.5t-27.5 11.5zM716 297q0 -81 -57.5 -138.5t-138.5 -57.5t-138.5 57.5
t-57.5 138.5t57.5 138.5t138.5 57.5t138.5 -57.5t57.5 -138.5v0z" />
    <glyph glyph-name="shezhi3" unicode="&#xe64f;" 
d="M513.5 510q-87.5 0 -149.5 -61.5t-62 -149t62 -149.5t149.5 -62t149.5 62t62 149.5t-62 149t-149.5 61.5zM513.5 158q-58.5 0 -100 41.5t-41.5 100t41.5 100t100 41.5t100 -41.5t41.5 -100t-41.5 -100t-100 -41.5zM951 449h-42q-9 0 -13 8.5t3 15.5l30 30q20 20 20 49
t-20 49l-113 113q-20 20 -49 20t-50 -20l-29 -30q-5 -4 -11 -4q-3 0 -5 1q-9 4 -9 13v43q0 29 -20.5 51.5t-49.5 22.5h-159q-29 0 -49.5 -22.5t-20.5 -51.5v-43q0 -9 -9 -13q-3 -1 -6 -1q-6 0 -10 4l-30 30q-20 20 -49 20t-49 -20l-113 -113q-20 -20 -20 -49t20 -49l30 -30
q7 -7 3 -15.5t-14 -8.5h-42q-29 0 -50.5 -21t-21.5 -49v-159q0 -29 21.5 -49.5t50.5 -20.5h42q10 0 14 -9t-3 -16l-30 -29q-20 -21 -20 -50t20 -49l113 -112q20 -21 49 -21t49 21l30 29q4 5 10 5q3 0 6 -2q9 -3 9 -13v-42q0 -29 20.5 -51t49.5 -22h159q29 0 49.5 22t20.5 51
v42q0 10 9 13q2 2 5 2q6 0 11 -5l29 -29q21 -21 50 -21t49 21l113 112q20 20 20 49t-20 50l-30 29q-7 7 -3 16t13 9h42q29 0 51 20.5t22 49.5v159q0 28 -22 49t-51 21zM954 220h-45q-25 0 -46.5 -14.5t-31 -38t-4.5 -48.5t23 -43l30 -30l-113 -112l-30 29q-25 25 -60 25
q-16 0 -32 -6q-24 -10 -38 -31t-14 -47v-45h-159v45q0 26 -14.5 47t-37.5 31q-16 6 -33 6q-34 0 -59 -25l-30 -29l-113 112l30 30q18 18 23 43t-5 48.5t-31 38t-47 14.5h-45v159h45q26 0 47 14t31 37.5t5 48.5t-23 43l-30 30l113 113l30 -30q25 -25 59 -25q17 0 33 7
q23 10 37.5 31t14.5 46v47h159v-47q0 -25 14 -46t38 -31q16 -7 32 -7q35 0 60 25l30 30l113 -113l-30 -30q-18 -18 -23 -43t4.5 -48.5t31 -37.5t46.5 -14h45v-159z" />
    <glyph glyph-name="liuyanicon" unicode="&#xe670;" 
d="M794 -66h-431q-6 -3 -7 -4l-156 -63h594q14 0 23.5 10t9.5 23.5t-9.5 23.5t-23.5 10zM963 625l-135 135q-8 8 -19 8t-19 -8l-613 -614q-4 -4 -6 -9l-92 -226q-6 -17 6 -29q8 -8 19 -8q5 0 10 2l144 58v0l83 33q5 2 9 6l613 614q8 8 8 19t-8 19zM316 15l-89 -36l-44 45
l35 88l591 591l45 -45l-562 -562q-10 -9 0 -19q4 -4 9.5 -4t9.5 4l562 562l34 -33z" />
    <glyph glyph-name="jiahao" unicode="&#xe671;" 
d="M896 332h-352v352h-64v-352h-352v-64h352v-352h64v352h352v64z" />
    <glyph glyph-name="weixin1" unicode="&#xe69f;" 
d="M-892 597v0v0v0v0zM587 288q-9 0 -17 -7.5t-8 -17t8 -17.5t17 -8q14 0 23 7.5t9 17.5t-9 17.5t-23 7.5zM725 288q-9 0 -17 -7.5t-8 -17t8 -17.5t17 -8q13 0 22 7.5t9 17.5t-9 17.5t-22 7.5zM331 470q-15 0 -26.5 -9t-11.5 -22.5t11.5 -22.5t26.5 -9q14 0 22.5 8.5t8.5 23
t-8.5 23t-22.5 8.5zM506 407q14 0 22.5 8.5t8.5 23t-8.5 23t-22.5 8.5q-15 0 -26.5 -9t-11.5 -22.5t11.5 -22.5t26.5 -9zM515.5 727q-89.5 0 -170.5 -35t-139.5 -93.5t-93.5 -140t-35 -170.5t35 -170t93.5 -139.5t139.5 -93.5t170.5 -35t170.5 35t139.5 93.5t93.5 139.5
t35 170t-35 170.5t-93.5 140t-139.5 93.5t-170.5 35zM412 151q-25 0 -87 12l-88 -44l25 76q-100 69 -100 168q0 89 73.5 151t176.5 62q92 0 164 -50t89 -126q-13 2 -25 2q-88 0 -150 -58t-62 -140q0 -26 8 -52q-13 -1 -24 -1v0zM781 63l19 -62l-69 37q-50 -12 -75 -12
q-89 0 -150.5 53t-61.5 128t61.5 128.5t150.5 53.5q85 0 149 -54t64 -128q0 -78 -88 -144v0z" />
    <glyph glyph-name="shezhi4" unicode="&#xe650;" 
d="M847.5 -212q-68.5 0 -117.5 49l-216 216q-60 -21 -124 -21q-106 0 -196 52.5t-142 142t-52 195.5q0 72 26 140l13 35l220 -220q13 -13 33.5 -13t34.5 13l108 108q14 14 14 34t-14 34l-220 220l36 13q66 26 139 26q106 0 195.5 -52t142 -142t52.5 -196h-49
q0 93 -45.5 171.5t-124.5 124t-171 45.5q-44 0 -85 -10l164 -165q29 -28 29 -68.5t-29 -68.5l-108 -108q-27 -28 -68 -28t-69 28l-165 164q-10 -42 -10 -85q0 -92 45.5 -170.5t124 -124.5t171.5 -46q63 0 122 23l14 5l239 -238q33 -33 82.5 -33t82.5 33l11 11q34 34 34 82.5
t-34 82.5l-182 182l35 35l181 -182q49 -49 49 -117.5t-49 -117.5l-10 -10q-49 -49 -117.5 -49z" />
    <glyph glyph-name="chaxun" unicode="&#xe7b9;" 
d="M929 -23l-192 192q74 94 74 214q0 95 -47 175.5t-127.5 127.5t-175.5 47t-175.5 -47t-127.5 -127.5t-47 -175.5t47 -175.5t127.5 -127.5t175.5 -47q120 0 215 74l191 -192q13 -13 31 -13t31 13t13 31t-13 31zM199 383.5q0 108.5 77 185t185.5 76.5t185 -76.5t76.5 -185
t-76.5 -185.5t-185 -77t-185.5 77t-77 185.5z" />
    <glyph glyph-name="iconfontqq" unicode="&#xe649;" 
d="M512 812q-139 0 -257 -68.5t-186.5 -186.5t-68.5 -257t68.5 -257t186.5 -186.5t257 -68.5t257 68.5t186.5 186.5t68.5 257t-68.5 257t-186.5 186.5t-257 68.5zM511 -178q-97 0 -185.5 38t-152.5 102t-102 152.5t-38 186t38 186t102 152t152.5 101.5t185.5 38t185.5 -38
t152.5 -101.5t102 -152t38 -186t-38 -186t-102 -152.5t-152.5 -102t-185.5 -38zM175 276q-21 -49 -23.5 -90t13.5 -50q12 -6 28.5 6t34.5 38q13 -54 63 -97q-55 -20 -55 -55q0 -28 38.5 -48t93.5 -20q48 0 85 16.5t45 40.5h15q8 -24 45 -40.5t85 -16.5q55 0 93.5 20t38.5 48
q0 35 -55 55q49 42 63 97q39 -56 63 -44q17 9 14 50t-24 90q-16 39 -36.5 65.5t-38.5 33.5q1 3 1 10q0 30 -16 53v4q0 13 -5 25q-5 104 -68.5 172.5t-167 68.5t-167 -68.5t-67.5 -172.5q-6 -12 -6 -25v-4q-15 -23 -15 -53q0 -7 1 -10q-18 -7 -38.5 -33.5t-37.5 -65.5v0z" />
    <glyph glyph-name="diannao1" unicode="&#xe6db;" 
d="M896 140v448q0 13 -9.5 22.5t-22.5 9.5h-704q-13 0 -22.5 -9.5t-9.5 -22.5v-448q0 -13 9.5 -22.5t22.5 -9.5h320l-64 -128h-256q-13 0 -22.5 -9.5t-9.5 -22.5t9.5 -22.5t22.5 -9.5h32h640h32q13 0 22.5 9.5t9.5 22.5t-9.5 22.5t-22.5 9.5h-256l-64 128h320q13 0 22.5 9.5
t9.5 22.5zM832 172h-640v384h640v-384z" />
    <glyph glyph-name="huanyuan" unicode="&#xe67e;" 
d="M13 435q-17 -12 -12 -32l43 -472q3 -12 14 -19t23 -5l447 155q13 3 20 14q3 5 4 11q4 20 -14 31l-146 95q66 102 130.5 164t130.5 81.5t128.5 -9t124.5 -113.5t118 -226q0 119 -18 215.5t-50 162t-75.5 112t-94 68t-106 25.5t-111.5 -11.5t-111 -46t-103.5 -74t-89 -101
t-68.5 -121.5l-149 96q-18 12 -35 0z" />
    <glyph glyph-name="beifen" unicode="&#xe6a2;" 
d="M623 523h-502q-23 0 -39.5 -16t-16.5 -39v-558q0 -23 16.5 -39.5t39.5 -16.5h502q23 0 39.5 16.5t16.5 39.5v558q0 23 -16.5 39t-39.5 16v0zM567 -35h-390v447h390v-447v0zM903 747h-502q-23 0 -39.5 -16t-16.5 -39v-112h112v56h390v-447h-84v-111h140q23 0 39.5 16.5
t16.5 39.5v558q0 23 -16.5 39t-39.5 16v0zM903 747z" />
    <glyph glyph-name="shanchu3" unicode="&#xe672;" 
d="M920 -30l-317 317l317 317l-90 90l-317 -317l-317 317l-90 -90l317 -317l-317 -317l90 -90l317 317l317 -317z" />
    <glyph glyph-name="xinxicaiji" unicode="&#xe60b;" 
d="M300 497h195q5 0 8.5 -4.5t3.5 -10t-3.5 -9.5t-8.5 -4h-195q-5 0 -8.5 4t-3.5 9.5t3.5 10t8.5 4.5zM300 560h195q5 0 8.5 -4t3.5 -10t-3.5 -10t-8.5 -4h-195q-5 0 -8.5 4t-3.5 10t3.5 10t8.5 4zM0 -50v212h79q5 0 9 4t4 10t-4 10t-9 4h-79v40h79q5 0 9 4t4 10t-4 10t-9 4
h-79v39h79q5 0 9 4.5t4 10t-4 9.5t-9 4h-79v35q0 27 18.5 45.5t44.5 18.5h311q27 0 45.5 -18.5t18.5 -45.5v-33h366v105h-145q-44 0 -75.5 31t-31.5 76v136h-263q-21 0 -35.5 -15t-14.5 -36v-63q0 -12 -8.5 -20t-20 -8t-20 8t-8.5 20v63q0 44 31.5 75.5t75.5 31.5h307
q12 0 20 -8l236 -241q8 -9 8 -20v-135h100q27 0 45.5 -18.5t18.5 -45.5v-313h-1024v0zM608 651v-112q0 -21 15 -36t36 -15h109q-27 27 -93.5 95zM960 -131h-897q-23 0 -40.5 15t-21.5 38h1022q-4 -23 -21.5 -38t-41.5 -15z" />
    <glyph glyph-name="msnui-copy" unicode="&#xe778;" 
d="M186 665v-721h489v605l-120 116h-369zM240 410h381q7 0 7 -24t-7 -24h-381q-7 0 -7 24t7 24zM240 340h381q7 0 7 -23.5t-7 -23.5h-381q-7 0 -7 23.5t7 23.5zM233 246.5q0 23.5 7 23.5h381q7 0 7 -23.5t-7 -23.5h-381q-7 0 -7 23.5zM621 14h-358q-7 0 -7 23t7 23h358
q7 0 7 -23t-7 -23zM558 642l48 -59l57 -57h-105v116zM718 828h-369v-118h273l95 -124v-502h121v624zM757 666h-59v116l117 -116h-58z" />
    <glyph glyph-name="gengxin" unicode="&#xe65e;" 
d="M512 -161q94 0 179 36.5t147 98.5t98.5 147t36.5 179h51q0 -139 -68.5 -257t-186.5 -186.5t-257 -68.5t-257 68.5t-186.5 186.5t-68.5 257t68.5 257t186.5 186.5t257 68.5q113 0 212.5 -46t171.5 -128v174h51v-256h-256v51h164q-64 72 -153.5 113t-189.5 41
q-94 0 -179 -36.5t-147 -98.5t-98.5 -147t-36.5 -179t36.5 -179t98.5 -147t147 -98.5t179 -36.5z" />
    <glyph glyph-name="gengxin1" unicode="&#xe616;" 
d="M512 -161q94 0 179 36.5t147 98.5t98.5 147t36.5 179h51q0 -139 -68.5 -257t-186.5 -186.5t-257 -68.5t-257 68.5t-186.5 186.5t-68.5 257t68.5 257t186.5 186.5t257 68.5q113 0 212.5 -46t171.5 -128v174h51v-256h-256v51h164q-64 72 -153.5 113t-189.5 41
q-94 0 -179 -36.5t-147 -98.5t-98.5 -147t-36.5 -179t36.5 -179t98.5 -147t147 -98.5t179 -36.5z" />
    <glyph glyph-name="sms" unicode="&#xe673;" 
d="M451 285q23 -20 56 -20t56 20l424 370q-26 21 -59 21h-832q-38 0 -65 -26zM964 -100l-198 197q-12 12 -12 29.5t12 30t29.5 12.5t30.5 -13l197 -196q1 5 1 8v595l-3 -3q-1 -1 -3.5 -2t-3.5 -2l-396 -343q-46 -40 -111 -40t-111 40l-396 343v-588q0 -1 0.5 -3.5t0.5 -3.5
l196 195q12 13 30 13t30 -12.5t12 -30t-12 -30.5l-198 -197q-8 -8 -18 -11q24 -17 54 -17h833q30 0 55 18q-11 3 -19 11zM910 525z" />
    <glyph glyph-name="duanxin" unicode="&#xe674;" 
d="M957 599v0.5v0.5v0q-3 7 -9 12q-1 0 -2 1q-7 5 -14 5h-841q-6 0 -13 -5q-2 -1 -3 -1q-6 -5 -9 -12v0v-0.5v-0.5q-2 -5 -2 -8v-578q0 -12 8 -19.5t19 -7.5h421h420q11 0 19 7.5t8 19.5v578q0 3 -2 8zM858 564l-251 -213v0v0l-95 -81l-347 294h693zM512 40h-394v492
l242 -204l-152 -171q-7 -8 -6.5 -19t9.5 -19q7 -7 18 -7q12 0 20 9l152 172l93 -79q8 -7 17.5 -7t17.5 7l93 79l152 -172q8 -9 21 -9q10 0 17 7q9 8 9.5 19t-6.5 19l-152 171l242 204v-492h-393z" />
    <glyph glyph-name="jian" unicode="&#xe675;" 
d="M128 352h767v-127h-767v127z" />
    <glyph glyph-name="xitong" unicode="&#xe60f;" 
d="M517 207l42 -41l-27 -27q-2 -2 -4.5 -6t-1.5 -16.5t12 -24.5l211 -209q1 -1 2.5 -2t6.5 -3.5t9.5 -3.5t11.5 0.5t13 5.5l106 102q2 3 4.5 8t1 17.5t-12.5 22.5l-209 207l-2.5 2.5t-7 4.5t-11 4t-13 -0.5t-14.5 -7.5l-27 -28l-45 44zM488 328l-226 223v69l-134 79l-66 -64
l81 -128l71 -1l223 -219zM123 -48q0 4 1 10t10 15.5t25 9.5q4 0 9 -1.5t14.5 -10t9.5 -23.5q0 -3 -1 -8t-10 -14.5t-23 -10.5l-30 -29q2 -2 5 -4.5t13 -7t20.5 -6t25.5 2t29 15.5l403 432q5 -3 14 -8t38 -13t58 -8q10 0 25 1t53.5 14t66.5 37q5 4 13 11.5t26 32.5t28.5 52.5
t10.5 69t-18 84.5l-144 -140l-122 121l144 138q-4 2 -10.5 5.5t-29.5 8.5t-46.5 4.5t-59 -10.5t-70.5 -32q-3 -2 -7.5 -5.5t-16.5 -15.5t-22 -25.5t-21 -35t-17 -44.5q-1 -3 -2.5 -10t-3 -28.5t1 -42t12.5 -49t28 -52.5l-453 -372q-2 -1 -3.5 -3.5t-6 -9.5t-6.5 -14
t-3 -18.5t4 -23.5zM123 -48q0 -3 1.5 -8.5t10.5 -14.5t23 -10l-30 -29q-39 33 -43 51z" />
    <glyph glyph-name="lanmudaohang" unicode="&#xe627;" 
d="M943 797q33 0 55.5 -24.5t22.5 -59.5v-64q0 -35 -22.5 -59.5t-55.5 -24.5h-862q-33 0 -55.5 24.5t-22.5 59.5v64q0 35 22.5 59.5t55.5 24.5h862zM943 404q33 0 55.5 -24.5t22.5 -59.5v-64q0 -35 -22.5 -59.5t-55.5 -24.5h-862q-33 0 -55.5 24.5t-22.5 59.5v64
q0 35 22.5 59.5t55.5 24.5h862zM943 11q33 0 55.5 -24.5t22.5 -59.5v-64q0 -35 -22.5 -59.5t-55.5 -24.5h-862q-33 0 -55.5 24.5t-22.5 59.5v64q0 35 22.5 59.5t55.5 24.5h862zM943 11z" />
    <glyph glyph-name="shenhe" unicode="&#xe711;" 
d="M508 747q-122 0 -224.5 -60t-162 -162.5t-59.5 -224.5q0 -91 35.5 -173.5t95.5 -142.5t142.5 -95t173.5 -35t173.5 35t142.5 95t95.5 142.5t35.5 173.5t-35.5 174t-95.5 142.5t-143 95t-174 35.5v0zM793 421q-272 -288 -307 -323q-20 -17 -38 -16t-30 13l-194 178
q-14 14 -14 34t13.5 34t32.5 14t32 -14l161 -145l70 73.5t139.5 146.5l69.5 73q14 14 33 14t32.5 -14t13.5 -34t-14 -34v0z" />
    <glyph glyph-name="duanxin1" unicode="&#xe698;" 
d="M880 601h-736q-28 0 -47.5 -19.5t-19.5 -46.5v-491q0 -28 19.5 -47.5t47.5 -19.5h736q28 0 47.5 19.5t19.5 47.5v491q0 27 -19.5 46.5t-47.5 19.5zM896 383q-366 -153 -370 -154q-11 -4 -26 3l-372 152v55l388 -159l380 158v-55z" />
    <glyph glyph-name="neirong" unicode="&#xe632;" 
d="M86 77h55v-85h-57q-35 0 -59.5 24.5t-24.5 58.5v654q0 34 24.5 58.5t59.5 24.5h684q35 0 59.5 -24.5t24.5 -58.5v-57h-86v54h-680v-649v0zM1023 558v-681q0 -34 -24.5 -58.5t-58.5 -24.5h-685q-35 0 -59.5 24.5t-24.5 58.5v681q0 34 24.5 58.5t59.5 24.5h685
q34 0 58.5 -24.5t24.5 -58.5v0v0zM937 555h-680v-676h680v676v0zM339 356h179q7 0 7 7v72v1q0 7 -7 7h-179q-7 0 -7 -7v-73q0 -7 7 -7v0v0zM339 173h404q7 0 7 8v72v1q0 7 -7 7h-404q-7 0 -7 -7v-74q0 -7 7 -7v0v0zM339 -9h516q7 0 7 7v72v1q0 7 -7 7h-516q-7 0 -7 -7v-73
q0 -7 7 -7v0v0z" />
    <glyph glyph-name="zhucechenggong" unicode="&#xe615;" 
d="M893 301q0 -104 -51 -192t-139 -139t-192 -51t-192 51t-139 139t-51 192t51 192t139 139.5t192 51.5t192 -51.5t139 -139.5t51 -192zM723 401l-36 36l-222 -222l-129 130l-36 -36l165 -166z" />
    <glyph glyph-name="iconfontmokuai" unicode="&#xe657;" 
d="M734 547q-176 -8 -238 -11q-30 -1 -39.5 19t14.5 46q16 16 21 22.5t8.5 20.5t1.5 38q-4 38 -35.5 55.5t-71.5 17.5q-38 -1 -71 -20t-44 -51q-18 -54 16 -80q1 0 7 -4t8 -6l6.5 -6.5t5 -8t0 -8t-4.5 -10t-11 -11.5q-6 -4 -29.5 -5.5t-54 0t-59.5 3t-50 3.5t-20 2
q0 -19 -1.5 -45t-3 -91t2.5 -76q3 -21 22.5 -26t36.5 16q13 16 34.5 19.5t42.5 -5.5t37.5 -32t18.5 -55q1 -26 -8.5 -46t-24.5 -29t-31.5 -12.5t-31 1.5t-20.5 16q-16 26 -46 28t-33 -29q-4 -67 28 -280v0q14 -4 37 -8.5t72.5 -10.5t74.5 -2q20 3 26 29t-12 42
q-7 6 -10.5 20.5t-0.5 31.5t12.5 32t33 23.5t56.5 5.5q26 -3 43 -13.5t22.5 -23.5t5.5 -27t-5 -25t-13 -15q-11 -8 -13.5 -22t7.5 -28.5t32 -20.5q21 -4 51.5 -3.5t67.5 5t67.5 10t52 9.5l21.5 4q-3 18 -7 45.5t-9 84t-2 79.5q4 18 16 25.5t25.5 4.5t24.5 -9t14 -10
q26 -33 63 -34.5t65.5 31t28.5 85.5q0 75 -38.5 106t-78.5 22.5t-48 -30.5q-7 -21 -24 -27t-31.5 1t-17.5 20q-4 17 -4.5 47.5t1.5 62t4.5 59.5t4.5 46.5t2 17.5z" />
    <glyph glyph-name="geren" unicode="&#xe624;" 
d="M512 -147q-91 0 -173.5 35.5t-142.5 95.5t-95.5 142.5t-35.5 173.5t35.5 173.5t95.5 142.5t142.5 95.5t173.5 35.5t173.5 -35.5t142.5 -95.5t95.5 -142.5t35.5 -173.5t-35.5 -173.5t-95.5 -142.5t-142.5 -95.5t-173.5 -35.5zM512 702q-109 0 -202 -53.5t-146.5 -146.5
t-53.5 -202t53.5 -202t146.5 -146.5t202 -53.5t202 53.5t146.5 146.5t53.5 202t-53.5 202t-146.5 146.5t-202 53.5zM735 76h-53q0 1 0.5 4t0.5 5q0 80 -46 126.5t-125 46.5t-125 -46.5t-46 -126.5q0 -2 0.5 -5t0.5 -4h-53q0 72 39.5 129.5t102.5 82.5q-40 22 -64.5 63
t-24.5 89q0 72 50 122.5t120 50.5t120 -50.5t50 -122.5q0 -48 -24.5 -89t-64.5 -63q63 -25 102.5 -82.5t39.5 -129.5zM642 440q0 55 -38.5 92.5t-91.5 37.5t-91.5 -37.5t-38.5 -92.5t38.5 -92.5t91.5 -37.5t91.5 37.5t38.5 92.5z" />
    <glyph glyph-name="password" unicode="&#xe658;" 
d="M885 362q-33 32 -77 32h-8v118q0 119 -84 203q-85 83 -203 83q-116 0 -200 -82l-2 -2q-40 -39 -62.5 -91.5t-22.5 -110.5v-118h-8q-45 0 -77 -32v-1q-32 -30 -32 -76v-400q0 -46 32 -76q32 -33 77 -33h590q42 0 74 30l3 3q32 32 32 76v400q0 44 -32 77v0zM316 512v0
q0 82 58 139l2 2q58 55 137 55q81 0 139 -57t58 -139v-118h-394v118zM827 -115v0q0 -9 -6 -13l-1 -2q-5 -5 -12 -5h-590q-8 0 -13 6t-5 14v399q0 7 5 14v0q6 5 13 5h590q8 0 13 -5q6 -5 6 -14v-399zM513 234v0q-45 0 -77 -32q-31 -31 -31 -77q0 -45 31 -77q22 -21 50 -29
v-55q0 -12 8 -19.5t19.5 -7.5t19.5 8t8 19v55q27 7 49 29q32 33 32 77q0 46 -32 77q-32 32 -77 32v0zM552 86v0q-17 -16 -38 -16h-3q-18 0 -37 16q-16 16 -16 38q0 24 16 39q17 16 39 16q23 0 39 -16t16 -39q-1 -21 -16 -38v0z" />
    <glyph glyph-name="pinglun01" unicode="&#xe617;" 
d="M78 676v-646h470l149 -144l109 144h144v646h-872zM890 89h-114l-86 -113l-118 113h-435v527h753v-527zM227 536h570v-61h-570v61zM227 388h570v-61h-570v61zM227 239h570v-61h-570v61z" />
    <glyph glyph-name="liuyan" unicode="&#xe6fc;" 
d="M370 27h-101q-62 0 -105.5 43.5t-43.5 105.5v385q0 62 43.5 105.5t105.5 43.5h486q62 0 105.5 -43.5t43.5 -105.5v-385q0 -62 -43.5 -105.5t-105.5 -43.5h-127q-11 0 -18 -8l-133 -139q-7 -7 -7 -17.5t7.5 -17.5t17.5 -7t18 8l133 139l-18 -8h127q83 0 141 58t58 141v385
q0 83 -58.5 141t-140.5 58h-486q-83 0 -141 -58t-58 -141v-385q0 -83 58 -141t141 -58h101q11 0 18 7.5t7 17.5t-7 17.5t-18 7.5v0v0zM286 436h382q11 0 18 7.5t7 17.5t-7 17.5t-18 7.5h-382q-10 0 -17.5 -7.5t-7.5 -17.5t7.5 -17.5t17.5 -7.5v0v0zM286 280h452
q10 0 17.5 7.5t7.5 18t-7.5 17.5t-17.5 7h-452q-10 0 -17.5 -7t-7.5 -17.5t7.5 -18t17.5 -7.5v0v0zM286 280z" />
    <glyph glyph-name="yonghu1" unicode="&#xe610;" horiz-adv-x="1118" 
d="M657 631q-29 80 -96 130.5t-150 50.5q-109 0 -185 -81.5t-76 -196.5q0 -70 30 -130t82 -97q-117 -49 -189 -159.5t-72 -247.5h73q0 136 86 238t211 117l6 0.5t14.5 1t18.5 0.5t22.5 -0.5t22.5 -1.5h4q32 -5 63 -16q-25 49 -30 105q-39 -18 -81 -18q-82 0 -139.5 61
t-57.5 147.5t57.5 147.5t139.5 61q65 0 117 -40.5t71 -105.5q27 21 58 34zM856 193q52 37 82 97t30 130q0 116 -77 197.5t-186 81.5q-108 0 -184.5 -81t-76.5 -196q0 -70 30.5 -130t82.5 -98q-117 -49 -189 -159t-72 -247v0h73v0q0 136 86 237.5t211 117.5l5.5 0.5t14 1
t19 0.5t23 -0.5t22.5 -1.5h4v0q123 -19 205.5 -119t82.5 -234v0h75v0q-1 135 -73.5 245t-187.5 158v0zM705 213q-81 0 -138.5 61t-57.5 148t57.5 148t139 61t139 -61t57.5 -148t-57.5 -148t-139.5 -61v0z" />
    <glyph glyph-name="denglu1" unicode="&#xe60c;" horiz-adv-x="1870" 
d="M807 315q-17 16 -36 38h-437l-37 -38h-142q62 63 101 110q-48 70 -96 157h114q19 -35 45 -75q35 51 60 97q3 7 -1 15q-5 8 -13 8l-210 1v46h304q26 0 38 -21q16 -20 6 -44q-47 -109 -129 -209h358q-91 115 -181 298h122q22 -44 37 -70l21 51h111q-40 -101 -69 -154
q22 -32 25 -37q10 21 28 64h111q-32 -83 -69 -155q36 -45 70 -82h-131v0zM157 -35h133l-38 99h125l39 -99h264l36 99h126l-36 -99h131v-47h-780v47zM218 243q0 23 16 39.5t38 16.5h550q23 0 38.5 -16.5t15.5 -39.5v-101q0 -23 -15.5 -39t-38.5 -16h-550q-22 0 -38 16t-16 39
v101zM751 220q0 13 -9.5 22.5t-21.5 9.5h-345q-13 0 -22.5 -9.5t-9.5 -22.5v-55q0 -13 9.5 -22t22.5 -9h345q13 0 22 9t9 22v55zM1055 535h545v67q0 13 -9 22t-22 9h-543v48h645q22 0 38.5 -17t16.5 -39v-237h41v-47h-330v-370q0 -23 -16 -39.5t-38 -16.5h-157v47h54
q13 0 22 9.5t9 22.5v347h-327v47h617v100h-546v47v0zM1196 125q-28 -134 -67 -211h-127q50 111 68 211h126zM1070 164l-47 137h126l47 -137h-126zM1539 164l47 137h126l-47 -137h-126zM1665 125q21 -105 69 -211h-128q-38 77 -67 211h126z" />
    <glyph glyph-name="xitonghuancun" unicode="&#xe67b;" 
d="M768 87h-512v85h512v-85zM768 257h-512v86h512v-86zM768 428h-512v85h512v-85zM128 -127l64 64l64 -64l64 64l64 -64l64 64l64 -64l64 64l64 -64l64 64l64 -64l64 64l64 -64v854l-64 -64l-64 64l-64 -64l-64 64l-64 -64l-64 64l-64 -64l-64 64l-64 -64l-64 64l-64 -64
l-64 64v-854z" />
    <glyph glyph-name="chat" unicode="&#xe611;" horiz-adv-x="1344" 
d="M1141 363q-6 2 -12 -1t-8 -9t1 -12t9 -8q94 -30 137.5 -76.5t43.5 -116.5q0 -38 -22.5 -76.5t-46.5 -60.5t-52 -42q-7 -5 -7 -13v-122q-58 21 -100 69q-6 6 -15 4.5t-28 -6.5q-33 -9 -49 -9q-62 0 -108 14t-91 47q-12 9 -21.5 -3.5t2.5 -22.5q49 -36 100 -51.5t118 -15.5
q20 0 57 10q11 3 17 4q27 -28 60.5 -47.5t47.5 -24t23 -6.5h3q6 0 10 4q6 4 6 12v136q62 44 95 95.5t33 104.5q0 81 -49.5 135.5t-153.5 87.5zM1056 380q0 121 -68 220t-188 155.5t-266 56.5q-148 0 -270.5 -57t-193 -156.5t-70.5 -218.5q0 -177 192 -312v-213q0 -8 7 -13
q4 -3 9 -3q3 0 7 2q13 6 35.5 18t76 51t95.5 85q79 -15 128 -15q150 0 265 50t178 141t63 209zM550 12q-48 0 -131 16q-9 1 -15 -5q-74 -84 -180 -142v195q0 8 -7 13q-185 128 -185 291q0 110 66.5 202t181.5 145t254 53q137 0 249.5 -52t176.5 -144t64 -204
q0 -165 -131 -266.5t-343 -101.5zM528 444q-26 0 -45 -19t-19 -45t19 -45t45 -19t45 19t19 45t-19 45t-45 19zM528 348q-13 0 -22.5 9.5t-9.5 22.5t9.5 22.5t22.5 9.5t22.5 -9.5t9.5 -22.5t-9.5 -22.5t-22.5 -9.5zM752 444q-26 0 -45 -19t-19 -45t19 -45t45 -19t45 19t19 45
t-19 45t-45 19zM752 348q-13 0 -22.5 9.5t-9.5 22.5t9.5 22.5t22.5 9.5t22.5 -9.5t9.5 -22.5t-9.5 -22.5t-22.5 -9.5zM304 441q-26 0 -45 -19t-19 -45.5t19 -45t45 -18.5t45 18.5t19 45t-19 45.5t-45 19zM304 345q-13 0 -22.5 9.5t-9.5 22.5t9.5 22.5t22.5 9.5t22.5 -9.5
t9.5 -22.5t-9.5 -22.5t-22.5 -9.5z" />
    <glyph glyph-name="iconwendang" unicode="&#xe625;" 
d="M691 488v328l330 -328h-330zM231 486h394v-64h-394v64zM231 287h593v-64h-593v64zM824 25h-593v64h593v-64zM163 -109h725v530h132v-663h-988v1060h593v-133h-462v-794z" />
    <glyph glyph-name="qqdenglu" unicode="&#xe60d;" 
d="M512 -212q-104 0 -199 40.5t-163.5 109t-109 163.5t-40.5 199t40.5 199t109 163.5t163.5 109t199 40.5t199 -40.5t163.5 -109t109 -163.5t40.5 -199t-40.5 -199t-109 -163.5t-163.5 -109t-199 -40.5v0zM512 784q-98 0 -187.5 -38.5t-154.5 -103.5t-103.5 -154.5
t-38.5 -187.5t38.5 -187.5t103.5 -154.5t154.5 -103.5t187.5 -38.5t187.5 38.5t154.5 103.5t103.5 154.5t38.5 187.5t-38.5 187.5t-103.5 154.5t-154.5 103.5t-187.5 38.5v0zM704 550zM801 214l-2 11l-2 5l-1 5l-2 6l-2 6l-3 6l-2 6l-5 9l-4 9l-4 7l-4 7l-4 7l-2 5l-6 10
l-9 11l-2 4v0v2l1 4l1 3l3 7v4v3l1 3v3l-1 4v3l-1 5l-2 6l-2 5l-2 5l-2 4l-2 4l-2 3l-4 6v2l-1 2l-1 11l-2 6v9l-2 9l-3 10l-1 6l-2 5l-2 5l-2 6l-2 6l-2 6l-5 12l-3 5l-4 6l-3 6l-4 6l-4 6l-5 5l-4 5l-6 6l-4 5l-6 4l-4 3l-2 2l-7 5l-8 4l-7 5l-9 4l-8 4l-8 3l-9 3l-9 2
l-8 2l-10 2l-8 2l-9 2h-10l-8 2h-10h-9h-8l-9 -1l-9 -1l-9 -1l-8 -1l-8 -2l-9 -2l-8 -2l-8 -3l-7 -3l-7 -3l-7 -3l-7 -4l-7 -4l-6 -4l-6 -5l-5 -4l-8 -7l-6 -6l-6 -7l-6 -7l-5 -6l-5 -6l-4 -7l-3 -4l-2 -3l-4 -6l-3 -6l-3 -6l-3 -6l-2 -6l-2 -5l-2 -6l-2 -5l-2 -9l-3 -10
l-1 -7l-1 -7v-4v-5v-4l-1 -2l-2 -2l-2 -2v-3l-2 -5l-2 -6v-4v-4v-3l-4 -5l-2 -5l-3 -5l-1 -5l-1 -4l-2 -4v-3v-4v-3l1 -3l2 -4v-4l-2 -1l-5 -4l-8 -7l-4 -4l-5 -4l-4 -3l-1 -2l-6 -6l-5 -6l-4 -5l-5 -7l-5 -7l-5 -7l-4 -6l-3 -8l-3 -6l-2 -6l-3 -7l-2 -7l-2 -7l-2 -6l-1 -6
v-6l-2 -5v-11v-10v-5v-4l1 -8l1 -4l1 -3l1 -4v-2l3 -4l1 -1l1 -1h1l2 -1h1l2 1l5 1l4 1l5 3l3 3l4 2l3 4l3 3l3 4l3 3l2 3l1 3l4 6v2l1 1l1 2l1 1v0l1 1h1v-1v0h1l1 -7l2 -6l3 -6l3 -6l2 -5l2 -6l3 -4l3 -5l3 -4l2 -4l6 -8l6 -6l5 -5l5 -5l4 -3l7 -2l3 -1l1 -1v-1h-1l-1 -1
l-5 -1h-5l-4 -1h-4l-4 -2l-3 -1l-3 -1l-3 -2h-2l-3 -2l-1 -2l-3 -1l-3 -3l-1 -2l-2 -2l-1 -3l-1 -3l-1 -3l-1 -3v-3v-2v-2v-3v-3v-2v-2v-2l2 -4l1 -2l1 -2l2 -2l1 -2l2 -2l1 -1l5 -3l5 -3l5 -3l6 -2l6 -2l6 -2l7 -2l6 -1l8 -1l6 -1l9 -2l14 -1l15 -1h14h7h7l6 1l5 1h6h5l8 2
l6 2l6 1l10 4l5 2l5 2l7 4l7 4l5 3l4 3h5l4 -1l9 -1h4h3h3l3 -1l4 -1l4 -2l10 -3l9 -4l9 -2l9 -2l9 -2l10 -2h9l9 -1l9 -1l8 -1h9h9h8l8 1l8 1l8 1l7 1l7 2l6 1l3 1l3 1l7 2l4 3l6 2l4 3l4 3l2 2l2 2l2 2l2 4l2 2v2l1 2l1 2v2l1 2l-1 2l-1 3l-1 3l-1 3l-1 3l-2 2l-2 3l-3 2
l-5 4l-6 5l-6 3l-7 4l-15 7l-3 2l5 5l3 3l3 4l5 6l4 8l5 7l3 6l5 12l4 10l2 7l2 2l1 2l1 1h1h1l3 -7l3 -7l3 -4l3 -4l3 -4l2 -4l3 -3l1 -1l2 -2l2 -1l1 -1l3 -2h2v0h2h2l2 2h2l2 2l1 2l2 2l2 2l1 2l2 3l1 3l1 3l2 7l2 7l1 8v5v4v4v6l-1 9l-1 11v0zM701 97h-1l1 1v-1v0z
M701 97z" />
    <glyph glyph-name="denglu2" unicode="&#xe67f;" 
d="M887 -212h-682q-57 0 -97 40t-40 97v136h68v-136q0 -28 20 -48t49 -20h682q28 0 48 20t20 48v750q0 28 -20 48t-48 20h-682q-29 0 -49 -20t-20 -48v-136h-68v136q0 57 40 97t97 40h682q57 0 97 -40t40 -97v-750q0 -57 -40 -97t-97 -40v0zM537 513q-10 10 -10 24t9.5 24
t24 10t24.5 -10l235 -235q11 -11 10 -26q1 -15 -10 -26l-235 -235q-10 -10 -24.5 -10t-24 10t-9.5 24t10 24l178 179h-681q-14 0 -24 10t-10 24t10 24t24 10h681l-178 179v0zM480 513z" />
    <glyph glyph-name="shuaxin1" unicode="&#xe677;" 
d="M598 -136q100 21 175 90t108.5 167t14.5 202q-17 93 -83 171q-9 10 -14.5 15.5t-14.5 11t-18 4t-19 -8.5q-8 -6 -11 -12t-1 -14t3.5 -11t8.5 -14t8 -11q2 -4 6.5 -9.5t6.5 -7.5q71 -98 64.5 -212t-88.5 -199q-81 -85 -196 -97.5t-213 52.5t-130.5 175t14.5 221
q34 81 115.5 133.5t154.5 41.5q1 -8 -2 -14t-9.5 -13t-8.5 -10q-3 -4 -14 -17t-15.5 -20t-3 -18.5t13.5 -21.5q10 -8 18.5 -9.5t16.5 3.5t13.5 10.5t13 15t12.5 13.5q2 2 18 22q8 10 22 27q17 21 24.5 29.5t15.5 22.5t10 18t0 15.5t-5.5 15l-16 16t-22 20t-32.5 24.5
q-13 9 -20 15q-7 5 -21 20t-23.5 23t-24.5 8.5t-29 -14.5q-15 -14 -11 -27t14.5 -21t23.5 -20.5t16 -24.5q-86 -29 -93 -32q-68 -26 -122.5 -76.5t-85.5 -113t-41 -134t11 -139.5q30 -100 101.5 -172t168 -101.5t196.5 -7.5z" />
    <glyph glyph-name="quanxian" unicode="&#xe631;" 
d="M818 400h-46v71q0 114 -80.5 194.5t-195 80.5t-195 -80.5t-80.5 -194.5v-71h-46q-19 0 -32.5 -13.5t-13.5 -32.5v-456q0 -19 13.5 -32.5t32.5 -13.5h643q19 0 32.5 13.5t13.5 32.5v456q0 19 -13.5 32.5t-32.5 13.5v0zM680 400h-367v71q0 76 53.5 130t130 54t130 -54
t53.5 -130v-71v0zM680 400z" />
    <glyph glyph-name="neirong1" unicode="&#xe64a;" 
d="M781 455l-117 117l-347 -347l117 -117zM237 26l160 43l-117 117zM899 618l-70 70q-10 10 -23.5 10t-23.5 -10l-46 -47q-10 -10 -10 -23.5t10 -23.5l70 -70q9 -10 23 -10t24 10l46 47q10 10 10 23.5t-10 23.5zM844 2q0 -14 -10 -24t-23 -10h-597q-13 0 -23 10t-10 24v596
q0 14 10 23.5t23 9.5h415l66 67h-481q-41 0 -70 -29.5t-29 -70.5v-596q0 -42 29 -71t70 -29h597q41 0 70 29t29 71v489l-66 -67v-422z" />
    <glyph glyph-name="wangzhanguanli" unicode="&#xe659;" 
d="M815 -161v0q-14 0 -22 10q-26 28 -49 28t-48 -28q-9 -9 -22 -9q-6 0 -11 2l-1 1l-57 31v1q-8 5 -10.5 14.5t1.5 18.5l1 3t2.5 9t1.5 11q0 24 -17.5 42t-42.5 18h-2h-1q-15 0 -19 21q-5 27 -5 46t5 45q4 22 20 21h2q25 0 42.5 18t17.5 43q0 12 -5 23q-4 8 -1.5 17.5
t10.5 15.5v0l60 33h1q5 2 11 2q13 0 22 -9q25 -26 47 -26t48 26q8 9 21 9q6 0 12 -3v0l58 -32h1q7 -6 10 -15.5t-1 -17.5q-6 -17 -6 -23q0 -25 18 -42.5t43 -17.5h2q16 0 20 -22q5 -26 5 -45q0 -13 -5 -46q-4 -22 -20 -21h-2q-25 0 -43 -17.5t-18 -42.5q0 -6 6 -23
q4 -9 1 -18.5t-10 -14.5l-1 -1l-59 -32v0q-6 -3 -11 -3v0v0zM813 -133h2v0l55 30q-8 17 -8 34q0 35 24 60t59 27q4 24 4 40t-4 39q-35 2 -59 27.5t-24 60.5q0 16 8 33l-54 30h-1h-2q-9 -9 -20 -17q-25 -18 -46.5 -18t-47.5 18q-10 8 -20 17q-1 1 -2 1v0l-56 -31q7 -17 7 -33
q0 -35 -24 -60.5t-58 -27.5q-5 -23 -5 -39q0 -18 5 -40q34 -2 58 -27t24 -60q0 -17 -7 -34l53 -30v0q1 0 2 1q8 8 20 18q26 18 48 18q23 0 48 -19q12 -9 21 -18v0v0zM744 -22q-33 0 -56.5 23.5t-23.5 56.5t23.5 56.5t56.5 23.5t56.5 -23.5t23.5 -56.5t-23.5 -56.5
t-56.5 -23.5v0v0zM744 111q-22 0 -37.5 -15.5t-15.5 -37.5t15.5 -37.5t37.5 -15.5t37.5 15.5t15.5 37.5t-15.5 37.5t-37.5 15.5v0v0zM146 234q-14 0 -23.5 9.5t-9.5 23.5v393q0 14 9.5 23.5t23.5 9.5h721q13 0 22.5 -9.5t9.5 -23.5v-393v-1v-1q29 -22 50 -51q16 24 16 53
v393q0 41 -29 69.5t-69 28.5h-721q-41 0 -70 -28.5t-29 -69.5v-393q0 -41 29 -70t70 -29h369q16 36 42 66h-411v0zM495 103h-153q-13 0 -22.5 -9.5t-9.5 -23t9.5 -23.5t22.5 -10h152q-2 15 -2 28q0 17 3 38v0zM500 658q-74 0 -127 -53t-53 -127.5t53 -127.5t127.5 -53
t127.5 53t53 127.5t-53 127.5t-128 53v0zM620 551v0.5v0.5v2h0.5h0.5l3 -3h1l1 1v0.5t1 0.5v-1l5 -3v-1l-1 -1l-2 2h-0.5h-0.5l-1 -0.5t-1.5 -1t-1.5 -0.5h-2h-1l-1 2v0v1v1v0zM619 535v1v0v0v0l1 -1l2 -3h-3h-1l1 1q1 0 1 0.5t-1 1.5v0zM584 578v0q2 0 1 1v3l1 2l1 3v0
l2 -1h1l1 -2v0l0.5 -0.5l0.5 -0.5v0l1 -3q-1 0 -4 -1h-0.5h-0.5v0l-4 -1v-1h-1l1 1v0zM462 622v0v0v-1v1v0v0zM452 608q1 -1 2 -1l-2 -2v0l-1 -1h-3l4 4v0zM445 597v0l-1 1q1 -1 4 0h1l-1 -1q-1 -1 5 -5v0l-5 -2v0l1 1q1 1 0 2l-4 4v0zM442 602v0l4 1h-1v-1l-2 -2v-2h1l-2 1
h-1l1 3v0zM414 589v1v0l5 4q2 0 5 2l4 1q1 0 1 1v0l1 1h2v-1q0 -1 1 -1q1 -1 2 -1l1 1h1v0l-3 -3q0 -1 -0.5 -1.5l-0.5 -0.5l-3 -2h-1l-3 -5l-7 -3q-1 0 -1 -0.5v-0.5v0l-2 3l-1 4l-1 1v0v0zM347 465h-5v-1l8 -10h1h2l2 -1q0 -1 1 -1h1l1 7l1 4v0l1 -2v-5l0.5 -1.5l0.5 -1.5
v-1v-1l2 -3q1 -2 2 -1h2l1 1v-1q1 -5 2 -12v-3l-1 -2l-1 -6v-1v0l1 -4v0q0 -1 0.5 -1t0.5 -1v0v0v-0.5v-1.5l3 -6v0l6 -5l3 -4v-1v0q9 -12 12 -14l7 -4h1q1 0 4 -2l1 -1q7 -11 11 -17q3 -3 6 -8.5t6 -8.5q-35 18 -57.5 50t-25.5 71v0zM359 488q0 -1 1 -1h1h1q0 -3 1 -4t2 -1
q4 0 4 4l-1.5 1l-1.5 1h-2v-1l3 -1q0 -1 3 -2h1h4h9v0h-2h-2l-1 -0.5t-1 -1.5q0 1 -2 1v0l-4 1h-2v0h-0.5t-2.5 -2v-1.5t1 -1.5l2 -1l1 -1v0h1v0h1l2 1h2h2.5t1.5 1q3 0 3 1v1v-1l3 -1h-1h-1l-1 1h-1h1v0h7v0h1h5v0l0.5 -0.5l0.5 -0.5v0v0l0.5 -0.5l0.5 -0.5h1h2h2v-1
q0 -1 1 -1v0l-1 -1v-3l-1 -1l1 -1v-1v0v0v-1.5v-2.5q0 -1 1 -1v-1v-1v0l-1 -1v-1v-1v0v-2v0l1 -1l-2 2v0l-5 2h-1v0v-1h-1l-6 1l-3 4q0 1 -1 1v0h-2l-1 -1v0q-1 0 -1 0.5t-1 0.5h-1l-6 -4h-1v-1l-2 -4l-2 1l-0.5 0.5l-0.5 0.5v2v0h-1l-4 -2v2l1 11v1l-0.5 0.5l-0.5 0.5l-3 3
l-1 1v0v0h2h2l1 1v0v3l-1 10h-1h-1l-1 -1l-0.5 -0.5t-0.5 -1.5v0zM592 406l-2 -9l-3 -3l-2 -4h-1v-0.5v-0.5h-0.5h-0.5q0 -1 -3 -3t-4 -2q0 -1 -2 -1h-2v-1l5 -3q-1 -3 -1.5 -9t-1.5 -8h1v-1l1 -1l-1 -3l-0.5 -1l-1.5 -3l-1 -1q-1 -1 -2 -3l-1 -1v-1.5t0.5 -0.5h1.5
q-33 -18 -71 -18q-20 0 -40 6l-1 1l-1 1v0v2v0l8 1l2 1h5v1l-7 3l-1.5 0.5t-2 0.5h-1.5h-1l-1 1h1v0v1l1 2v0v1l1 3h5h3l3 1v0v2v0l-2 1h-3l-5 8q1 0 4.5 2t4.5 3l1 1v2q0 8 1 10l-0.5 0.5l-0.5 0.5l-2 8l1 1l1 1v0l1 1h-1h-1l1 4v0l5 5v1h1v0.5v0.5l-1 7l-1 1l-14 7v0
l-11 2l-4 1l-4 3l-1 1h-1h1q0 1 -1 2v0v0q0 1 -1 1v0l-3 2l-4 6l-1 1v0q0 1 -1 1l-7 3l-2 2h-1l-4 -1l-5 5v0h1q1 1 1 2v2l-3 2h-2q-2 0 -2 1v0l1 1l1 1h-2v0v0q1 1 0 2q2 1 2 2v2l-1 2l1 1q0 1 -1 4v0v1q1 1 1 2v0q0 1 -1 3h-1v1v0v-7l-0.5 -2t-0.5 -4.5v-2.5h-1v2.5
t-0.5 5.5t-1 3t-2 2.5t-2.5 2.5l-0.5 1.5t-1 1.5t-0.5 0.5t-0.5 0.5h-0.5h-1l-1 1l-1 1q-1 0 -5 0.5t-5 0.5q-9 0 -9 -1v0l4 2l2 1v-2l1 -2v-3v-6.5v-3.5l1 -8h-1v3.5t-0.5 6.5l-0.5 3v2v4v3l-3 1l-1.5 1l-1.5 1v-25h7v0q1 0 2 14v4.5t-1 5.5v1q-1 4 -2 3l-0.5 0.5t-1 0.5
t-0.5 -0.5v-0.5v0q-1 0 -2.5 1.5l-2.5 2.5q-1 0 -3.5 1t-3.5 1q0 1 -0.5 0l-0.5 -1v0l-4 1h-1v1q-1 -1 -3 -5v1h-0.5h-0.5l-5 6q0 2 0.5 3l1 2t1 7t1.5 17v0l3 -10l1 -1l1 -2q2 1 2 2l4 -3v-11v-2q2 -1 3 -1t1 1h1v0v-3q1 -3 2 -3h2v0q1 0 2 3h-1v-1l-2 -2h-1l1 8q0 2 0.5 7
t0.5 6l4 12v0v-2l1 -1l4 1q1 1 3.5 2t3.5 2v0q1 0 1 0.5v0.5q1 3 1 4v0q1 -1 2 0l6 6l1 1l1 1l6 1h1l2 2v2v5l1 8h1q1 0 1 -3v-3v-1v-1l5 1v-2v-2h1q0 -1 1 -1q1 1 4 2t4 1l3 1v0l1 4v4h2v0l0.5 -1.5t1.5 -0.5l1 -1v0q0 1 -1 1l1 2l-0.5 1t-1.5 1t-5 -5l-1 1v1.5v0.5h1l2 2
q1 1 1 2l-1 -3v0v-1h6v2v0v0v0l-1 -1v-1.5t5 -1.5v1h1l1 1h1h1h1h2v0h3h0.5h0.5v0.5v0.5q0 1 -1 1l1 1v1t-2 1l3 2q1 1 0 2q0 1 -1 1l2 2v0v2l-1 1h-3v1l0.5 1l0.5 1v1l-4 1h-3l-7 1v0l7 1q0 4 4 6v1h1v1h1q1 1 2 3h0.5t0.5 -0.5v-0.5h1q1 0 5 4h0.5t6.5 3l1 1v1l-3 4l2 2
q0 1 -3 5v1h-1v0l2 2v0h1q1 0 2 3t2 3l0.5 2l0.5 2v0l1 -2v-1l2 -2h0.5h0.5l-2 -1l-1.5 -0.5l-1.5 -0.5v0h1.5t1.5 -0.5t-1 -0.5h-1l-0.5 -0.5l-0.5 -0.5v-1l2 2l2 3l1.5 2.5l1.5 2.5h4l1 -6v-3l-1 -4v-2v-1v-2l1 -1v-7v-3q0 -4 1 -4h-3v2q-1 4 -3 2l-1 2v1v0v1v-2v0v-1v0v0
h-1v0q-1 -1 -1 -1.5v-0.5l2 -6v-1l1 1v1v1l1 1h1l1 -4v0v-2l2 -1l3 1h1l2 2l2.5 2.5l3.5 3.5l4 2h1v-1l1 -3h1v1l3 3h4l3 -4v0l1 4q1 1 4.5 3t4.5 3v0.5v0.5q1 0 1 1l1 1q1 2 1 3v0.5v0.5v1l1 5v1v1l-0.5 1t-0.5 2v0h1h1l2 1v1q12 -3 22 -7q1 0 3 -1q8 -3 15 -7v0h-2
q0 -1 -1 -1v-1v-1h-1l2 -1l1 -1h2v-1h-3l-2 -6v0v0l-1 -1v0l-3 -4q-1 0 -1 -1l5 -7v-1v3l1 3l1.5 2.5l1.5 2.5h1l-1 -9l0.5 -2l0.5 -2l1 -3v-0.5v-1.5l-2 -1v0l-1 -1l-1 -1h-1l-1 -1v-0.5v-0.5v0l2 -1l3 1v1l-1 0.5t-3.5 2.5t-6.5 5l6 2h2h3v1h-3.5h-3.5l-2 1q-3 0 -5 1
l-2 5q-2 4 -3 4h-2q-2 0 -7 -4.5t-5 -8.5v-1l1 2t2.5 4t1.5 1.5t1 1.5t2.5 3.5l1.5 1.5v0l-0.5 -3.5l-0.5 -3.5v-2l-1 -2v-1t-0.5 -1.5t-0.5 -1v-0.5v0h-0.5t-0.5 -0.5v-0.5v0q-1 0 -2 -2q-1 0 -1 -1l1 -2l1 -1h-1v-1v-2v-2h2l4 1v0l4 1v0v0v0v-1v0v0l-1 -1v-1q-1 -2 0 -3
t2 -1h1v0h17v-1v0q0 -1 -2.5 -1t-4.5 -0.5l-2 -0.5h-1l-2 1l-2 2h1l8 -5l5 -3v-1l-5 3q-1 0 -2.5 1.5t-4 3t-4.5 1.5h-1l-0.5 -2.5t-1.5 -1.5q-1 0 -1 -2v-1l-1 -1l-1 -1v-1l-1 -1h-1v-1q-1 0 -1 -1q1 -1 -1 -3t-2 -3l-5 -5v-1h2t2 -0.5t2 -0.5h1l2 -1l1 -4q1 -1 3 -1l3 1
l1 -2l-9 -7v-1v0l-2 -6l-6 -4l-2 -2h-1q-1 -2 -5 -9l-1 -1.5l-1 -1.5l-4 -8v0v-2t1 -1v0l1 -2l1 -7l-5 -8q0 -1 1 -2l1 -2v-1v-1v-1v0q0 -1 1 -1l1 -2l2 -3l4 -6h1l3 -2l2 -3v0l1 -1v0v0l1 -1l6 -3l2 -6v-1l1 -2v0h3h5h7v-1v0l7 1v0l1 4l0.5 1.5l0.5 1.5l2 3h3l2 1l1 -4
q1 -1 2 -1h5l2 -2v-1l-4 -8v-1l4 -9l7 -2l6 -1v-1h-3h-3l-2 -1h-1l-0.5 -0.5l-0.5 -0.5l-1 -1l-1 -3v0zM596 531q0 1 -1 1l-1 1l-2 1q-1 1 -1.5 1h-0.5l-2 -1l-13 -1h-1l-8 -3h-3v0l3 1v0h1v0l3 3v0l2 2v1l-1 3v1l1 1h1v0h1l1 1q1 0 1 1v2l1 1l4 -1h1l1 2h1l-0.5 -0.5
l-0.5 -0.5v0v-2l1 -1v0v-1v-1v-1l0.5 -1t0.5 -2t2 -1v0h1l2 1q1 0 1 1t-1 4q0 1 -1 1v1v1l3 -3v0l6 -3v-1v-1l-3 1l-1 -0.5t-1 -1.5v-0.5v-1v-0.5q1 -1 4 -3l1 -1v0q-2 0 -2 -2v2v0zM632 521q-1 0 -1 -1l-1 -1l-6 2v0h-3v1h-1q-2 1 -5 1v-1h-1l-1 -1q-1 0 -1 -1v-2l-6 3
l-1 1l-6 1l-2 1v1q0 2 -1 4q0 -1 0.5 -1.5l0.5 -0.5v-1v0q1 -1 2 -1v0q1 0 3 3v0v0.5v1.5q1 0 1 1v3q1 0 1 1l1 2v2v0v0q1 0 1 1v-1l1 -1v0h1l2 -3h0.5h0.5v0l1 -2l1 -1v-1h1v0h2v-1l1 -2q0 -1 6 -2v0v0q2 0 2 4v-1h2l2 1h1v0v-1v-2q1 0 3 -1v0v0q1 -1 1 0h1l1 1v-2v-5l-4 1
v0zM587 431q-1 2 -4 2v0q-3 -1 -4 -4q-1 -2 1 -3q1 -1 3 -1q3 0 4 3q1 2 0 3v0zM528 592v0q1 0 8 4q1 0 1 2v0.5v0.5h-1v1l-3 2q-1 1 -2 1l-5 -1h-2q0 1 -0.5 1t-3.5 -1q-1 0 -1.5 -1t0.5 -2t2 -1l-1 -1q0 -1 0.5 -1.5t7.5 -3.5v0v0zM528 592z" />
    <glyph glyph-name="iconfonthuishouzhan" unicode="&#xe612;" 
d="M746 -135h-462q-16 0 -19 15l-111 638q-2 8 4 15t14 7h685q9 0 14.5 -7t4.5 -15l-112 -638q-2 -15 -18 -15zM300 -97h430l105 599h-640zM647 590q-12 0 -17 11l-38 88l-135 8l-48 -83q-4 -6 -11.5 -8t-14 1.5t-8.5 11t1 14.5l54 93q5 10 17 9l159 -9q12 -1 16 -12l42 -98
q4 -7 1 -14.5t-10 -10.5q-4 -1 -8 -1zM918 574h-2l-811 48q-7 0 -12.5 6t-5 14t6.5 13t14 5l811 -49q7 0 12.5 -6t4.5 -14q0 -7 -5.5 -12t-12.5 -5z" />
    <glyph glyph-name="pinglun1" unicode="&#xe628;" 
d="M740 441v341h-626v-682h295l-108 -112h-237q-26 0 -45 18.5t-19 45.5v780q0 27 18.5 45.5t45.5 18.5h725q27 0 45.5 -19t18.5 -45v-277zM853 213v-163q0 -26 -18.5 -45t-45.5 -19h-163zM626 327h-398v114h398v-114v0zM626 668v-113h-398v113h398zM907 521q10 9 23 9
t23 -9l48 -48q9 -10 9 -23t-10 -22l-429 -417q-9 -10 -22.5 -10t-22.5 10l-48 48q-9 9 -9 22t9 23z" />
    <glyph glyph-name="daohanglanmu" unicode="&#xe621;" 
d="M901 92h-778q-18 0 -30.5 -12.5t-12.5 -30.5t12.5 -30.5t30.5 -12.5h778q18 0 30.5 12.5t12.5 30.5t-12.5 30.5t-30.5 12.5zM123 676h778q18 0 30.5 12.5t12.5 30.5t-12.5 30.5t-30.5 12.5h-778q-18 0 -30.5 -12.5t-12.5 -30.5t12.5 -30.5t30.5 -12.5zM901 427h-778
q-18 0 -30.5 -12.5t-12.5 -30.5t12.5 -30.5t30.5 -12.5h778q18 0 30.5 12.5t12.5 30.5t-12.5 30.5t-30.5 12.5z" />
    <glyph glyph-name="quanxianxiugai" unicode="&#xe6e2;" 
d="M859 219l-39 38l1 1l-52 51l-232 -231q-6 -4 -8 -10l-48 -166q-4 -12 5 -21q6 -6 14 -6q3 0 6 1l167 49q5 1 9 6l234 232l-57 56v0zM559 -66l-20 20l26 89l12 -11l55 -4l3 -54l13 -13zM791 332l146 -146l33 31l-146 146zM1009 334l-70 70q-15 15 -35.5 15t-34.5 -14
l-21 -22l140 -140l21 22q14 14 14 34.5t-14 34.5zM511 213l54 49v84q51 6 116 18q35 8 62 31t37 55q27 82 27 163q0 83 -27 166q-10 32 -37 55t-62 33q-153 29 -277.5 29t-276.5 -29q-36 -10 -63 -33t-37 -55q-26 -82 -26 -163q0 -80 26 -164q10 -33 36.5 -55.5t63.5 -29.5
q56 -13 115 -21v-376l108 -98h27h28q0 1 -0.5 2.5t-1.5 3.5q-2 12 -2 21t1 14l2 5q36 126 46 159q4 15 10.5 28t10.5 18l4 5l62 62zM269 652q-22 0 -37.5 14.5t-15.5 34.5v49q0 11 54 17.5t134 6.5t134 -7t54 -17v-49q0 -20 -16 -34.5t-38 -14.5h-269z" />
    <glyph glyph-name="jianhao" unicode="&#xe68d;" 
d="M128 448h767v-37h-767v37z" />
    <glyph glyph-name="icon1" unicode="&#xe678;" 
d="M293 485h449q9 0 16 6.5t7 16t-7 16t-16 6.5h-449q-9 0 -15.5 -6.5t-6.5 -16t6.5 -16t15.5 -6.5v0v0zM293 485zM695 748h-68v9q0 46 -32 78t-77 32t-77.5 -32t-32.5 -78q0 -2 1 -9h-68q-10 0 -16.5 -6.5t-6.5 -15.5t6.5 -15.5t16.5 -6.5h354q9 0 15.5 6.5t6.5 15.5
t-6.5 15.5t-15.5 6.5zM581 748h-127q-1 8 -1 9q0 27 19 46t46 19t46 -19t19 -46q0 -1 -2 -9zM966 266q-4 11 -10 20v419q0 18 -13 31.5t-31 13.5h-114q-9 0 -15.5 -6.5t-6.5 -16t6.5 -16t15.5 -6.5h114v-366q-22 18 -47 29q-35 15 -75 15t-74 -15q-27 -12 -49 -30h-374
q-9 0 -15.5 -6.5t-6.5 -15.5t6.5 -16t15.5 -7h335q-8 -13 -14 -27q-15 -35 -15 -74q0 -24 5 -46h-311q-9 0 -15.5 -6.5t-6.5 -15.5t6.5 -15.5t15.5 -6.5h328q14 -25 34 -45q26 -26 60.5 -41t74.5 -15t75 15q25 11 47 28v-90h-788v751h115q10 0 16.5 6.5t6.5 16t-6.5 16
t-16.5 6.5h-115q-18 0 -31.5 -13.5t-13.5 -31.5v-751q0 -18 13.5 -31t31.5 -13h788q18 0 31 13t13 31v143q6 10 10 20q15 35 15 75q0 39 -15 74v0zM904 156h-139v25v149h26v-149h113v-25v0zM904 156z" />
    <glyph glyph-name="zoomout" unicode="&#xe660;" 
d="M828 699.5q-64 64.5 -147.5 98t-168.5 33.5t-168.5 -33.5t-147.5 -98t-97.5 -148t-33.5 -168t33.5 -168t97.5 -148t147.5 -97.5t168.5 -33t168.5 33t147.5 97.5t97.5 148t33.5 168t-33.5 168t-97.5 148zM747 342h-193v-193h-84v193h-193v83h193v194h84v-194h193v-83z" />
    <glyph glyph-name="piliangicon" unicode="&#xe613;" 
d="M890 -128h-763q-53 0 -90 37.5t-37 89.5v764q0 53 38 93t90 40h512v-57h-512q-26 0 -49 -25t-23 -51v-764q0 -26 22.5 -48t48.5 -22h763q27 0 52 22.5t25 48.5v512h57v-512q0 -52 -40.5 -90t-93.5 -38zM478 148q-12 -12 -33 -16l-278 -138q-23 -10 -38.5 5.5t-6.5 39.5
l138 279q4 20 16 33l494 495q19 18 45.5 18t44.5 -18l113 -113q18 -18 18 -44.5t-18 -45.5zM183 78q-6 -11 2.5 -19.5t19.5 -3.5l172 104l-90 91zM321 306l359 359l113 -112l-360 -360q-63 64 -112 113zM905 711l-67 67q-10 9 -23 9t-22 -9l-66 -66l111 -114l67 68
q10 9 10 22t-10 23z" />
    <glyph glyph-name="xitongguanli" unicode="&#xe69b;" 
d="M896 149h-768q-53 0 -90.5 37.5t-37.5 90.5v427q0 53 37.5 90.5t90.5 37.5h768q53 0 90.5 -37.5t37.5 -90.5v-427q0 -53 -37.5 -90.5t-90.5 -37.5v0v0zM160 0h228q3 5 16.5 31.5t26 40t28.5 13.5h106q16 0 28.5 -13.5t26 -40t16.5 -31.5h228q13 0 22.5 -9.5t9.5 -22.5v0
q0 -13 -9.5 -22.5t-22.5 -9.5h-704q-13 0 -22.5 9.5t-9.5 22.5v0q0 13 9.5 22.5t22.5 9.5v0z" />
    <glyph glyph-name="comiisqqdenglu" unicode="&#xe62d;" 
d="M544 832h-26l-14 -1l-26 -4l-13 -2l-13 -2l-12 -3l-12 -4l-12 -4l-11 -3l-11 -6l-11 -4l-10 -6l-10 -6l-9 -6l-9 -7l-7 -6l-12 -11l-10 -10l-9 -10l-9 -10l-8 -10l-7 -10l-6 -9l-4 -5l-2 -5l-7 -9l-5 -10l-4 -9l-4 -9l-4 -8l-3 -8l-3 -9l-3 -8l-4 -14l-3 -14l-2 -11
l-1 -10v-19l-3 -3l-3 -4l-2 -4l-1 -3l-3 -9l-2 -8l-1 -6v-5v-6l-6 -8l-4 -7l-2 -8l-3 -6l-1 -7l-2 -6v-15l1 -4l1 -7l2 -5l-3 -2l-8 -6l-12 -10l-7 -6l-6 -6l-5 -5l-4 -4l-8 -9l-8 -8l-6 -8l-8 -11l-7 -9l-6 -11l-6 -10l-5 -11l-5 -9l-4 -10l-4 -10l-3 -10l-3 -10l-2 -9
l-2 -9l-1 -9l-2 -9l-1 -16v-23l1 -6l2 -12l1 -5l2 -5l1 -5l2 -4l3 -6l2 -1l1 -3l1 -1h2l7 1l7 2l6 2l6 4l5 3l5 5l6 5l4 5l5 6l4 5l4 4l2 5l4 8l2 4l1 2v2l1 2h1l2 1v0l1 -1h1v0l3 -11l3 -9l3 -10l4 -8l3 -8l5 -8l4 -7l4 -7l4 -7l4 -5l9 -11l8 -10l8 -8l8 -6l7 -6l9 -8l4 -2
l2 -2v-1l-1 -1h-1h-2l-7 -1l-7 -1l-6 -1l-6 -1l-5 -2l-6 -1l-4 -3l-4 -2l-5 -1l-2 -3l-4 -2l-3 -2l-4 -5l-2 -3l-2 -2l-2 -5l-2 -5l-2 -4v-4v-8l-1 -4v-3l-1 -4v-3l1 -4l1 -3l2 -6l2 -3l1 -3l2 -3l3 -3l3 -3l2 -2l7 -5l7 -4l7 -4l9 -3l9 -4l10 -2l9 -3l11 -2l22 -3l11 -2
l22 -2l23 -1h41l10 1l8 1h9l7 1l13 2l9 3l8 2l16 6l7 3l7 3l11 6l10 5l7 5l6 5l8 -1l7 -1l13 -1h11h4l4 -2l7 -2l7 -3l13 -4l14 -5l14 -4l13 -2l14 -4l15 -2l13 -1l14 -2l13 -1l14 -1h38l12 1l12 1l11 2l11 2l11 2l10 3l4 1l5 1l9 4l7 3l8 4l7 4l6 5l2 2l3 3l4 5l4 5l1 3
l1 2l2 3v3v3l1 3l-1 5v4l-2 4l-1 4l-3 4l-3 5l-3 3l-4 3l-8 7l-9 7l-9 5l-10 6l-22 10l-5 3l-3 3l11 10l4 6l4 4l8 11l7 11l6 9l5 9l8 19l6 15l4 11l2 3l1 3l3 2h1v0l6 -11l5 -11l4 -6l3 -5l4 -7l5 -6l4 -4l2 -3l2 -2l3 -1l2 -2l4 -2l3 -1h3l3 1l3 1l3 2l3 2l2 3l3 3l3 3
l2 4l2 4l2 5l2 4l3 10l2 11l2 13l1 7v20l-2 14l-2 16l-3 16l-3 8l-2 9l-3 8l-3 9l-4 9l-4 9l-6 14l-7 13l-6 12l-5 10l-6 10l-5 9l-9 13l-12 18l-3 4l-1 2v2l2 6l3 5l2 10l2 6v6v4v5v5l-1 4l-2 9l-2 8l-2 8l-3 7l-4 6l-3 6l-3 6l-5 8l-2 3l-1 3l-2 16l-1 10l-2 13l-3 13
l-4 16l-2 9l-2 7l-3 8l-3 9l-3 9l-4 9l-7 17l-5 8l-5 10l-5 8l-5 9l-8 9l-6 8l-7 8l-8 8l-8 8l-9 7l-4 3l-5 4l-10 7l-11 7l-12 7l-12 6l-13 5l-12 5l-13 5l-14 4l-12 3l-14 3l-13 3l-14 1l-13 2l-14 2h-14z" />
    <glyph glyph-name="youqinglianjie" unicode="&#xe694;" 
d="M512 895q-104 0 -199 -40.5t-163.5 -109t-109 -163t-40.5 -198.5t40.5 -199t109 -163.5t163.5 -109t199 -40.5t198.5 40.5t163 109t109 163.5t40.5 199t-40.5 198.5t-109 163t-163 109t-198.5 40.5zM444 129q-38 -38 -93 -38t-93.5 38.5t-38.5 93.5t38 93l133 133
q38 38 93 38t94 -39l4 -4l2 -2q3 -3 5 -7v0h1h-1q11 -21 -5.5 -37.5t-37.5 -5.5q0 -1 -13 12v0q-20 20 -48.5 20t-48.5 -20l-133 -133q-20 -20 -20 -48.5t20 -48.5v0q20 -20 48.5 -20t48.5 20l80 80q44 -22 89 -1zM766 451l-132 -132q-39 -39 -93.5 -39t-93.5 39l-4 4l-2 2
q-3 3 -6 7v0.5v0.5v0q-11 20 5.5 37t37.5 5q1 1 14 -11v0q20 -21 48.5 -21t48.5 20l132 133q21 20 21 48.5t-21 48.5v0q-20 21 -48.5 21t-48.5 -21l-80 -79q-44 21 -88 1l123 123q39 39 93.5 39t93.5 -39t39 -93.5t-39 -93.5z" />
    <glyph glyph-name="jiaoseguanli" unicode="&#xe89e;" horiz-adv-x="1025" 
d="M1022 59q-6 18 -21 31t-27.5 19t-37.5 15t-35 13q-18 8 -74.5 32.5t-85.5 37.5q-29 8 -44 12q-15 10 -44 74q-5 0 -14.5 1.5t-13.5 2.5q1 17 13 32.5t15 24.5q2 9 3.5 33t7.5 35q4 8 16 14t16 12q10 14 15 42q9 53 -4 80q-1 4 -4.5 9.5t-5 9.5t-2.5 12q-1 12 2.5 55
t3.5 44q1 26 -0.5 36.5t-7.5 38.5q-11 32 -27 42l-33 5l-20 19q-29 18 -60 24.5t-63 0t-49.5 -12t-43.5 -16.5q-55 -18 -78.5 -75t-2.5 -159q3 -14 -4.5 -29t-7.5 -20q0 -1 1.5 -20.5t3 -29.5t4.5 -26t8.5 -26t13.5 -15q1 -1 6.5 -2.5t10 -2.5t4.5 0q2 -15 4.5 -43.5
t3.5 -42.5q3 -8 14 -20.5t14 -27.5l-21 -5q-29 -64 -44 -74l-44 -12q-29 -13 -85.5 -37.5t-74.5 -32.5q-10 -4 -35 -13t-37.5 -15t-27.5 -19t-21 -31q0 -11 -1 -72t-1 -87h449l33 230l-27 59l63 31l54 -31l-30 -60l52 -229h430q0 26 -1 87t-1 72z" />
    <glyph glyph-name="database" unicode="&#xe779;" 
d="M464 896h95q1 -1 3.5 -1h4.5q7 0 14 -1h6q4 0 6 -0.5t6.5 -0.5t6.5 -1h3h3q3 0 9 -0.5t9 -1.5q6 -1 19 -2.5t19 -2.5t17.5 -3t17.5 -3q53 -12 71 -18q4 -1 10 -3t8 -2q26 -9 51 -21q23 -12 28 -15q3 -3 9 -6.5t9 -5.5q1 -1 2.5 -2t3.5 -2.5t2 -2.5q27 -21 38 -45
q9 -22 6 -37l-0.5 -2t-0.5 -3q-3 -12 -5 -16q-9 -24 -33 -43q-1 -1 -5 -4t-4 -4q-10 -7 -20 -13l-21 -12q-24 -11 -30 -14q-7 -3 -28 -10q-9 -3 -46 -14q-3 -1 -10 -2.5t-11 -2.5q-5 -1 -6 -2q-4 0 -13 -2t-14 -3q-1 -1 -13 -3t-19 -2q-3 -1 -10 -2q-5 -1 -14.5 -2t-13.5 -1
q-5 -1 -7.5 -1t-8 -0.5t-8.5 -1.5h-6q-8 -1 -16 -1q-2 0 -5 -1h-12q-11 -1 -16 -1h-33h-13h-12q-17 0 -21 1h-15q-3 1 -20.5 2t-26.5 2q-7 1 -12 1q-6 1 -20 3l-21 3q-2 1 -5.5 1t-4.5 1q-7 1 -20.5 3.5t-20.5 4.5q-64 16 -87 26q-2 1 -10.5 4t-13.5 5q-77 36 -101 83l-4 12
l-0.5 2.5t-1.5 3.5v8q0 18 3 24q1 2 2 6t2 6q2 3 6 10q12 18 23 27q2 1 6.5 5t7.5 6t7.5 5.5t6.5 4.5q9 6 26 15q1 0 3.5 1.5t3.5 1.5q0 1 18 8q5 3 28 11q15 6 19 7q3 1 10 3t11 3q22 6 27 7q2 0 6 1l6 1.5t39 7.5q2 1 7.5 1.5t8.5 0.5q5 2 16 3t16 2q2 0 4.5 0.5t3.5 0.5
q2 0 7.5 0.5t7.5 0.5q1 0 3 0.5l2 0.5h5.5h5.5q2 1 7 1h8q5 1 19 2v0zM82 638h1q3 -17 26 -34q40 -30 105 -51q25 -8 27 -9q3 -1 8 -2t7 -2t5.5 -1.5t4.5 -0.5q4 -1 11.5 -3t11.5 -3q1 -1 3.5 -1h3.5q3 -1 8.5 -2.5t8.5 -1.5q6 -1 17 -3t17 -3q7 -2 21.5 -3.5t20.5 -3.5
q3 0 9 -0.5t9 -0.5q1 0 2.5 -0.5t2.5 -0.5q3 0 9 -0.5t9 -1.5q6 0 17 -0.5t16 -1.5h8h7h5.5h5.5q1 -1 24 -1q22 0 24 0.5t5.5 0.5h5.5h7h8l13 1h4q2 1 7 1t7 1q28 2 41 4q3 0 10.5 1t10.5 1q4 1 16.5 3t18.5 3q2 1 9 2q6 1 17 3t17 4q4 1 25 6.5t32 8.5q25 7 46 16
q1 1 3.5 1.5l2.5 0.5q7 3 18 8q1 1 3 1.5t3 1.5q32 16 46 27q16 12 23 24l3 5v2q0 3 1 4h1v-23v-45v-140v-38q0 -18 -1 -22q-3 -17 -13 -31q0 -1 -1 -3t-2 -3q-6 -6 -11 -13q-3 -3 -5 -4q-6 -6 -12 -11q-29 -21 -50 -30q-1 -1 -2 -1.5t-2.5 -1.5t-2.5 -1q-4 -2 -11 -5
t-10 -4q-5 -3 -29 -11q-30 -10 -55 -16q-9 -2 -69 -13q-7 -1 -21.5 -3t-16.5 -2h-2.5h-2.5q-4 -1 -13.5 -1.5t-13.5 -1.5q-2 0 -7 -0.5t-7 -0.5q-3 -1 -9 -1h-9q-5 0 -13.5 -0.5t-12.5 -0.5h-26h-25l-20 1h-6q-6 1 -18 1.5t-17 1.5h-4.5h-5.5q-6 1 -19.5 2.5t-19.5 2.5
q-2 0 -6 0.5t-6 0.5q-5 1 -15.5 2.5t-15.5 2.5q-70 16 -83 20q-3 1 -13.5 4t-15.5 6q-6 2 -17.5 6.5t-16.5 7.5q-3 1 -12 6q-3 1 -7.5 3.5t-5.5 2.5q-7 4 -22 14q-22 15 -30 25l-2.5 2.5t-2.5 1.5q-12 16 -16 25q-3 6 -5 13q-1 6 -2 6v83q1 62 0 186zM82 299h1q3 -17 26 -34
q40 -30 105 -51q26 -8 27 -9q3 0 8 -1.5t7 -2.5q2 0 5.5 -1t4.5 -1q3 -1 11 -3l12 -3q1 0 3.5 -0.5t3.5 -0.5q2 -1 8 -2t9 -2q6 -1 17 -3t17 -3q7 -2 21.5 -3.5t20.5 -2.5q3 -1 9 -1.5t9 -0.5h2.5h2.5q3 -1 9 -1.5t9 -0.5q22 -2 33 -2q3 -1 8 -1h7h5.5h5.5h24h24h5.5h5.5
q2 1 7 1h8q9 0 13 1h4h7t7 1q18 2 41 4q3 1 10.5 1.5t11 1t16 2.5t18.5 4q3 0 9 1t17 3.5t17 3.5q3 1 24.5 6.5t32.5 8.5q25 8 46 16q1 1 3 1.5t3 1.5q6 2 18 8q1 0 3 0.5t3 1.5q32 17 46 27q16 12 23 25q2 4 2.5 4.5t0.5 1.5q0 4 1 4q0 1 1 0v-22v-46v-139v-38
q0 -19 -1 -23q-3 -17 -13 -31q0 -1 -1 -3t-2 -3q-6 -6 -11 -13q-3 -2 -5 -4q-6 -6 -12 -11q-29 -21 -50 -30q-1 -1 -7 -4q-4 -2 -11.5 -5t-9.5 -4q-7 -3 -29 -10q-30 -10 -55 -16q-14 -4 -69 -14q-35 -4 -38 -5h-5q-4 -1 -13.5 -1.5t-13.5 -1.5h-7t-7 -1h-9t-9 -1h-12h-14
q-3 -1 -26 -1q-22 0 -25 1h-20h-2h-4q-5 1 -17.5 1.5t-17.5 1.5h-5h-5q-6 2 -19.5 3t-19.5 2q-5 1 -12 1q-16 3 -31 6q-71 15 -83 19q-4 2 -14 5t-15 5q-27 11 -34 14q-3 1 -12 6q-2 1 -6.5 3t-6.5 3q-7 4 -22 14q-22 15 -30 25l-5 5q-12 16 -16 24q-3 6 -5 13q-1 6 -2 7v82
q1 62 0 186z" />
    <glyph glyph-name="denglutubiao" unicode="&#xe6c3;" 
d="M512 -64q-122 0 -225 60t-163 163t-60 225t60 225t163 163t225 60t225 -60t163 -163t60 -225t-60 -225t-163 -163t-225 -60zM512 748q-151 0 -257.5 -106.5t-106.5 -257.5q0 -140 94 -244q27 13 47.5 15.5t55.5 17.5q31 13 53 22.5t28 12.5l6 4l1 67q-3 2 -7.5 7
t-14 26.5t-13.5 49.5q-11 -3 -16.5 8t-6.5 26q0 2 -1 12t-1.5 16.5t0.5 14.5t4 11.5t9 2.5q-8 56 -6 73q4 42 40.5 74.5t91.5 35.5q64 -3 96 -34.5t36 -75.5q2 -16 -6 -73q6 1 9.5 -2.5t4 -11.5t0 -14.5t-1.5 -16.5t-1 -12q-1 -15 -6.5 -26t-16.5 -8q-4 -28 -12.5 -49
t-15.5 -27l-7 -7l1 -66q17 -10 87 -39q35 -14 55.5 -17.5t46.5 -16.5q95 104 95 244q0 99 -48.5 183t-132.5 132.5t-183 48.5v0z" />
    <glyph glyph-name="02" unicode="&#xe614;" 
d="M512 -76q-93 0 -178.5 36.5t-147 98t-98 147t-36.5 178.5t36.5 178.5t98 147t147 98t178.5 36.5t178.5 -36.5t147 -98t98 -147t36.5 -178.5t-36.5 -178.5t-98 -147t-147 -98t-178.5 -36.5v0zM512 800q-113 0 -209 -55.5t-151.5 -151.5t-55.5 -209t55.5 -209t151.5 -151.5
t209 -55.5t209 55.5t151.5 151.5t55.5 209t-55.5 208.5t-151.5 151.5t-209 56v0zM351 418v98q0 52 47 88.5t113 36.5t112.5 -36.5t46.5 -88.5v-41h-31v28q0 41 -37.5 70.5t-90.5 29.5t-90.5 -29.5t-37.5 -70.5v-80q-24 -2 -32 -5zM711 187q0 -25 -16.5 -42.5t-39.5 -17.5
h-286q-23 0 -39.5 17.5t-16.5 42.5v178q0 25 16.5 42.5t39.5 17.5h286q23 0 39.5 -17.5t16.5 -42.5v-178v0z" />
    <glyph glyph-name="30wangzhanguanli" unicode="&#xe65a;" 
d="M594 51v-23q0 -5 -3.5 -8.5t-8.5 -3.5h-298q-5 0 -8.5 3.5t-3.5 8.5v23q0 5 3.5 8t8.5 3h80v104h-276q-9 0 -16 6.5t-7 16.5v540q0 9 7 16t16 7h713q9 0 16 -7t7 -16v-268q-24 7 -48 8v227q0 5 -3.5 8t-7.5 3h-641q-5 0 -8 -3t-3 -8v-475q0 -4 3 -7.5t8 -3.5h405
q2 -23 9 -44h-36v-104h80q5 0 8.5 -3t3.5 -8zM724 466v188q0 10 -10 10h-539q-10 0 -10 -10v-390q0 -10 10 -10h353q7 80 62 139.5t134 72.5zM944 264q6 0 10.5 -4.5t4.5 -10.5v-30q0 -6 -4.5 -10.5t-10.5 -4.5h-18q-7 0 -12.5 -4t-7.5 -10l-10 -26q-8 -13 3 -24l13 -12
q11 -11 0 -22l-21 -21q-11 -11 -22 0l-12 13q-11 10 -24 3l-26 -10q-14 -5 -14 -20v-18q0 -6 -4.5 -10.5t-10.5 -4.5h-30q-7 0 -11 4.5t-4 10.5v18q0 15 -15 20l-25 10q-13 7 -24 -3l-13 -13q-11 -11 -21 0l-22 21q-10 11 0 22l13 12q11 11 4 24l-11 26q-4 14 -19 14h-18
q-6 0 -10.5 4.5t-4.5 10.5v30q0 6 4.5 10.5t10.5 4.5h18q6 0 12 4.5t7 10.5l11 25q7 13 -4 24l-13 13q-10 10 0 21l22 21q10 11 21 0l13 -12q11 -11 24 -4l25 10q15 5 15 20v18q0 6 4 10.5t11 4.5h30q6 0 10.5 -4.5t4.5 -10.5v-18q0 -6 4 -12t10 -8l26 -10q13 -7 23 4l13 12
q11 11 22 0l21 -21q11 -11 0 -21l-13 -13q-10 -11 -3 -24l10 -25q5 -15 20 -15h18zM838 234q0 31 -22 53.5t-53 22.5t-53.5 -22.5t-22.5 -53.5t22.5 -53t53.5 -22t53 22t22 53v0z" />
    <glyph glyph-name="o5" unicode="&#xe679;" 
d="M877 749q-49 47 -115 45.5t-116 -45.5l-448 -448v0l-6 -13l-102 -314l320 71l473 467q49 48 47.5 118.5t-53.5 118.5zM269 128h-58l39 109l70 -7q19 0 35 -16t16 -35l7 -70l-116 -26zM422 237q0 20 -14 35.5t-37 15.5l-77 6l333 333l141 -134l-339 -339zM838 557l-25 -26
l-141 141l26 26q28 28 70 28t70 -28q29 -24 29 -66t-29 -75z" />
    <glyph glyph-name="yuncaiji" unicode="&#xe60e;" 
d="M64 198q0 -6 -6 -6h-52q-6 0 -6 6v500q0 6 6 6h52q6 0 6 -6v-500zM256 198q0 -6 -6 -6h-116q-6 0 -6 6v500q0 6 6 6h116q6 0 6 -6v-500zM964 -54l-109 108q-5 6 -16 3t-20 -12t-12 -20t3 -16l108 -109q6 -5 16.5 -2.5t20 12t12 20t-2.5 16.5zM768 440q-36 13 -75 13
q-29 0 -53 -6q-34 -8 -64 -25q-35 -19 -64 -54q-55 -65 -55 -151q0 -98 69 -167t167 -69t167 69t69 167q0 77 -45 138.5t-116 84.5zM693 48q-70 0 -119.5 49.5t-49.5 119.5t49.5 119.5t119.5 49.5t119 -49.5t49 -119.5t-49 -119.5t-119 -49.5zM768 698v-258q-36 13 -75 13
q-29 0 -53 -6v251q0 6 6 6h116q6 0 6 -6zM576 698v-276q-35 -19 -64 -54v330q0 6 6 6h52q6 0 6 -6zM448 198q0 -6 -6 -6h-52q-6 0 -6 6v500q0 6 6 6h52q6 0 6 -6v-500zM896 698v-361q-24 42 -64 71v290q0 6 6 6h52q6 0 6 -6z" />
    <glyph glyph-name="iconfontkucunchaxun01" unicode="&#xe67a;" 
d="M196 436h581l1 -30q1 0 5 0.5t7 0.5q34 0 74 -13v247h-172v129h-610v-784h531q-66 73 -66 167q0 26 5 54h-355v88h391q24 37 61 64h-452zM197 497v72h410v-72h-410zM715 770v-101h149zM983 0l-75 77q27 43 27 93q0 70 -48.5 120t-117 50t-117 -50t-48.5 -120t48.5 -120
t116.5 -50q40 0 78 20l76 -78zM671 170q0 42 29 71.5t70 29.5t69.5 -29.5t28.5 -71.5t-28.5 -72t-69.5 -30t-70 30t-29 72z" />
    <glyph glyph-name="zhifu" unicode="&#xe67c;" horiz-adv-x="1025" 
d="M268 -62q-10 5 -13 15.5t2 20t15.5 13t20.5 -2.5q50 -27 105 -40q55 -14 112 -14q93 0 176.5 35t146.5 98.5t98.5 146.5t35.5 176t-35.5 176.5t-98.5 146.5t-146.5 98t-176.5 35t-176.5 -35t-147 -98t-98.5 -146.5t-35 -176.5q0 -82 28 -157q28 -77 81 -139q7 -8 6 -19
t-9.5 -18t-19 -6t-17.5 9q-60 70 -91 154.5t-31 175.5q0 104 39.5 197t110 163.5t163.5 109.5t197 39t197 -39t163.5 -109.5t110 -163.5t39.5 -196.5t-39.5 -196.5t-110 -163.5t-163.5 -110t-197 -39.5q-64 0 -125 15.5t-117 45.5v0zM536 395v-74h131q11 0 19 -8t8 -18.5
t-8 -18.5t-19 -8h-131v-83q0 -11 -7.5 -18.5t-18.5 -7.5t-18.5 7.5t-7.5 18.5v83h-131q-11 0 -19 8t-8 18.5t8 18.5t19 8h131v74h-131q-11 0 -19 7.5t-8 18.5t8 18.5t19 7.5h121l-139 120q-8 7 -9 18t6.5 19t18.5 9t19 -6l140 -121l140 121q8 7 19 6t18 -9t6.5 -19t-8.5 -18
l-140 -120h122q11 0 19 -7.5t8 -18.5t-8 -18.5t-19 -7.5h-131z" />
    <glyph glyph-name="sql" unicode="&#xe6aa;" 
d="M944 816v-864h-864v864h864zM962 896h-900q-26 0 -44 -18t-18 -44v-900q0 -26 18 -44t44 -18h900q26 0 44 18t18 44v900q0 26 -18 44t-44 18v0zM263 184q-55 0 -95 13t-72 48l69 72q16 -17 42.5 -24.5t55.5 -7.5q63 0 63 41q0 18 -6.5 25t-13 10.5t-17.5 4.5l-53 8
q-59 9 -89 41t-30 92q0 64 43.5 105t117.5 41q48 0 83.5 -12.5t64.5 -42.5l-68 -71q-13 13 -30.5 20t-44.5 7h-8q-27 0 -40.5 -12.5t-13.5 -30.5q0 -7 2.5 -12t7 -9.5t11.5 -8.5t18 -5l53 -8q58 -8 81 -31.5t30.5 -48.5t7.5 -59q0 -67 -48 -106t-121 -39zM634 75v138
q-28 -26 -75 -26q-49 0 -73.5 25.5t-31 57t-6.5 74.5v20q0 56 5 89t31 60t76 27q25 0 43 -7.5t34 -24.5v30h98v-463h-101zM591.5 444q-26.5 0 -34 -19t-7.5 -62.5t7.5 -63t34 -19.5t34.5 19.5t8 62.5t-8 62.5t-34.5 19.5zM874 187q-51 0 -77 31t-26 72v359h101v-351
q0 -22 21 -21h35v-90h-54z" />
    <glyph glyph-name="icon" unicode="&#xe622;" 
d="M674 520q14 0 32 -2q-21 97 -114 161.5t-212 64.5q-88 0 -162 -36t-117.5 -99.5t-43.5 -138.5q0 -128 129 -218l-32 -97l113 56q82 -16 113 -16q13 0 30 2q-10 34 -10 67q0 106 80 181t194 75v0zM501 607v0q18 0 29 -11t11 -29t-11 -29.5t-29 -11.5q-19 0 -34 11.5
t-15 29t15 29t34 11.5v0zM275 526v0q-19 0 -34 11.5t-15 29t15 29t34 11.5q18 0 29 -11t11 -29t-11 -29.5t-29 -11.5zM969 268q0 96 -82 165t-192 69q-115 0 -195 -68.5t-80 -165.5t80 -165.5t195 -68.5q32 0 97 16l88 -48l-24 80q113 85 113 186v0zM606 308v0
q-12 0 -22 10.5t-10 22.5t10 22t22 10q17 0 28.5 -10t11.5 -22.5t-11 -22.5t-29 -10v0zM783 308v0q-12 0 -22 10.5t-10 22.5t10 22t22 10q18 0 29.5 -10t11.5 -22.5t-11.5 -22.5t-29.5 -10z" />
    <glyph glyph-name="c-databackup" unicode="&#xe651;" 
d="M910 34h-0.5h-0.5q-1 -1 -4.5 -2t-4.5 -2v0q-4 -1 -10 -3h-1q-4 -2 -10 -4h-0.5h-0.5q-5 -2 -10 -3q0 -1 -1 -1q-10 -3 -21 -6h-1q-6 -1 -11 -2l-0.5 -0.5t-1.5 -0.5q-6 -1 -11 -2h-1q-6 -1 -11 -2v0l-12 -2h-0.5h-1.5q-5 -1 -11 -2h-2q-6 -1 -11 -1h-1q-6 -1 -12 -1h-1
q-6 -1 -12 -1h-2h-0.5h-0.5q-12 -72 -113 -120q43 -7 88 -7q127 0 217 47.5t90 115.5v107h-2q-13 -64 -112 -108v0zM1024 416v4q0 64 -81 110.5t-200 51.5v-324q22 1 43 4q101 12 168 55t70 99zM910 226h-0.5h-0.5q-1 0 -4.5 -1.5t-4.5 -1.5v0q-3 -1 -10 -4h-1q-4 -2 -10 -3
q0 -1 -0.5 -1h-0.5q-5 -1 -10 -3h-0.5h-0.5q-10 -3 -21 -6h-1v0q-5 -2 -11 -3h-2q-5 -1 -11 -2l-1 -1q-5 -1 -11 -2v0q-5 -1 -12 -1q0 -1 -2 -1q-5 0 -11 -1h-1h-1q-6 -1 -11 -2h-1v0q-6 0 -12 -1h-0.5h-0.5h-12h-0.5h-1.5v-127q119 5 200 52t81 110v108h-2
q-14 -68 -112 -109zM348.5 308q94.5 0 174.5 25t126.5 67t46.5 93v122h-2q-7 -37 -40.5 -69t-86.5 -53v0l-1 -1l-10 -4v0l-12 -4v-1l-12 -4h-1q-6 -2 -11 -4h-1v0q-13 -3 -25 -6q0 -1 -0.5 -1h-0.5q-6 -1 -12 -3h-2l-12 -2l-2 -1l-12 -2h-1q-6 -1 -13 -2h-2l-12 -2h-1.5
h-1.5q-7 -1 -13 -2h-0.5h-0.5q-6 0 -13 -1h-0.5h-0.5q-7 0 -14 -1h-2h-14h-2h-13.5h-14.5h-1h-1h-13h-3q-7 1 -13 1h-1h-1q-7 1 -13 1h-0.5h-0.5q-6 1 -13 2h-1h-1q-7 1 -13 2h-2q-7 1 -13 2v0q-7 1 -13 2q-1 0 -1 1q-6 1 -13 2h-1q-7 2 -13 3h-0.5t-0.5 1l-24 6h-0.5h-0.5
l-12 4h-1q-6 2 -11 4l-1 1q-6 2 -11 4v0q-6 2 -11 4l-1 1v0q-53 21 -86 53t-41 69h-2v-122q0 -51 46.5 -93t127 -67t175 -25zM348.5 90q94.5 0 174.5 24.5t126.5 67t46.5 92.5v124h-2q-14 -74 -127 -124h-1l-10 -4h-1q-5 -2 -11 -5v0l-12 -4h-0.5h-0.5q-6 -2 -11 -4h-1v0
q-13 -4 -25 -7h-0.5h-0.5q-6 -1 -12 -3h-1h-1q-6 -1 -12 -3h-1h-1l-12 -2h-1q-6 -1 -13 -2h-2l-12 -2h-3q-7 -1 -13 -2h-0.5h-0.5q-6 0 -13 -1h-1q-7 0 -14 -1h-1h-1h-14h-2q-7 -1 -13.5 -1t-14.5 1h-2h-13h-2h-1q-7 1 -13 1h-2q-7 1 -13 1h-0.5h-0.5q-6 1 -13 2h-2
q-7 1 -13 2h-2q-7 1 -13 2v0q-6 1 -13 2h-0.5h-0.5q-6 2 -13 3h-0.5h-0.5q-7 2 -13 3h-1q-12 3 -24 7h-0.5h-0.5l-12 4h-1q-6 2 -11 4h-1q-6 3 -11 5v0q-2 0 -5.5 1.5t-5.5 2.5h-0.5h-0.5q-112 50 -127 124h-2v-124q0 -50 46.5 -92.5t127 -67t175 -24.5zM696 56v125h-2
q-15 -75 -127 -125v0h-1l-10 -4v0q-6 -2 -12 -5v0l-12 -4h-1q-6 -2 -11 -4h-0.5h-0.5q-13 -4 -25 -7h-0.5h-0.5q-6 -1 -12 -3h-2q-7 -2 -12 -3h-1h-1l-12 -2h-1q-6 -1 -13 -2h-0.5t-1.5 -1q-6 0 -12 -1h-3q-7 -1 -13 -2h-0.5h-0.5q-6 -1 -13 -1h-0.5h-0.5q-7 -1 -14 -1h-2
h-14h-2q-7 -1 -13.5 -1t-14.5 1h-1h-1h-13h-3q-7 0 -13 1h-1.5h-0.5q-6 0 -13 1h-0.5h-0.5q-6 1 -13 2h-2q-7 1 -13 1q0 1 -2 1q-7 1 -13 2v0q-7 1 -13 2h-1v0q-6 1 -13 3h-1q-7 2 -13 3h-0.5h-0.5q-12 3 -24 7h-0.5h-0.5l-12 4h-1q-6 2 -11 4h-1q-6 2 -11 5v0q-6 2 -11 4
h-1v0q-112 50 -127 125h-2v-125q0 -50 46.5 -92.5t127 -67t175 -24.5t174.5 24.5t126.5 67t46.5 92.5v0zM270 532q38 -5 78 -5t79 5q114 14 190 62.5t79 112.5v5q0 50 -46.5 92.5t-126.5 67t-174.5 24.5t-175 -24.5t-127 -67t-46.5 -92.5v-5q3 -64 79 -112.5t191 -62.5z" />
    <glyph glyph-name="3beifen" unicode="&#xe676;" 
d="M744 829h-84h-42h-403h-42h-106v-890h890v697zM618 787v-149h-403v149h403zM915 -19h-806v21h806v-21zM215 405h594v-381h-594v381zM809 426h-594v43h594v-43zM915 24h-64v381v21v85h-678v-85v-21v-381h-64v763h64v-191h487v191h62l193 -175v-588zM492 744h63v-63h-63v63
zM258 320h508v-42h-508v42zM258 193h508v-42h-508v42z" />
    <glyph glyph-name="m-members" unicode="&#xe6b8;" 
d="M275 -45h497l71 148h-645zM744 0h-442l-30 58h500l-28 -58v0zM767 600l-132 -234l-130 332l-126 -330l-122 232l-29 -282l-170 115l128 -293h668l116 301l-166 -126zM823 184h-608l-54 126l104 -71l22 209l99 -189l120 315l122 -313l112 199l30 -228l102 78zM28 503
q0 -17 12.5 -29t29.5 -12t29.5 12t12.5 29.5t-12.5 29.5t-29.5 12t-29.5 -12t-12.5 -30v0v0zM465 763q0 -17 12 -29.5t29.5 -12.5t29.5 12.5t12 29.5t-12 29.5t-29.5 12.5t-29.5 -12.5t-12 -29.5v0v0zM914 503q0 -17 12.5 -29t29.5 -12t29.5 12t12.5 29.5t-12.5 29.5
t-29.5 12t-29.5 -12t-12.5 -30v0v0zM914 503z" />
    <glyph glyph-name="jiaoseguanli1" unicode="&#xe618;" 
d="M602 456q57 23 117 23h6h6q30 74 15 160q-17 95 -95 150.5t-172 38.5q-99 -18 -162 -86.5t-47 -159.5q9 -53 33 -101l-227 -329q-16 -22 -11 -48l10 -56q-1 6 -3 13l-1 6q1 0 1 -2q8 -37 13 -37l75 -1q11 2 22.5 10t17.5 17l90 141l1 1l79 -6l105 165h0.5h0.5
q15 20 31 36q41 42 95 65v0zM125 118l-11 -5l1 12l218 317l13 -12l-221 -312v0zM456 700q26 38 70.5 46t81.5 -18.5t44.5 -71.5t-17.5 -82q-7 -9 -14 -14.5t-12.5 -8t-14 -1.5t-13.5 2.5t-15.5 7.5t-15 9.5t-17 12.5t-17.5 12q-5 4 -20.5 14.5t-19.5 14t-14.5 12.5
t-12.5 14.5t-4.5 14t1 17.5t10.5 19v0zM456 700zM716 418q-99 0 -169 -70t-70 -169t70 -169t169 -70t169.5 70t70.5 169t-70.5 169t-169.5 70v0zM855 81q0 -44 -133 -44q-134 0 -134 44v10q0 18 26.5 36.5t61.5 30.5q3 1 5.5 3.5t5.5 9.5t-2 16q-35 36 -35 86q0 36 20.5 56
t51 20t51 -20t20.5 -56q0 -49 -35 -85v0q-4 -11 -1.5 -18t4.5 -9t4 -3q36 -11 63 -29.5t27 -37.5v-10v0v0zM855 81z" />
    <glyph glyph-name="a130" unicode="&#xe63f;" 
d="M493 826l-15.5 -15.5t-36 -42.5t-49 -68t-47 -89t-37.5 -108.5t-13.5 -123.5t17.5 -137t63.5 -147t117.5 -155v-65q-6 0 -16.5 1t-42.5 6.5t-63 15t-74 28.5t-80 43.5t-75.5 64.5t-67 88t-48.5 115.5t-24 146.5q0 6 0.5 16t4.5 41.5t11.5 63t24 74t40 80.5t61.5 78
t85.5 70.5t115.5 54t148 31.5v-67zM493 826q5 0 15 -0.5t40 -3.5t59.5 -9.5t69.5 -21.5t75 -35.5t71.5 -55t63 -77.5t45 -104.5t21.5 -134.5q1 -5 0.5 -15t-4.5 -39t-11.5 -58t-23.5 -68t-38 -73t-57.5 -69t-80 -60t-108 -42t-137.5 -20v-65h17t45 4t67 11.5t78.5 24.5
t85.5 40.5t81.5 63.5t72.5 89t53.5 120.5t28.5 155.5q0 6 -0.5 17t-5.5 45t-13.5 67t-27 78t-43.5 83.5t-66.5 79t-92 69.5t-123 48.5t-157.5 21.5v-67zM352 625q11 -4 29 -9t56 -12t56 -4v226l35 -2v-255q-10 -1 -27.5 -1.5t-67.5 5.5t-95 21l2.5 6t6 14t5.5 11zM528 400
h196q-1 17 -2 42.5t-10.5 78t-24.5 75.5l31 10q6 -15 14.5 -40.5t20 -88.5t4.5 -109h-229v32zM760 399h193v-31h-196q3 23 3 31zM348 146q8 3 21.5 7t51.5 10.5t72 5.5v199h35v-230q-6 -1 -30.5 -0.5t-67 -5t-67.5 -17.5zM528 170q122 -9 148 -27q5 14 13.5 37.5t22 83
t12.5 104.5h33q0 -17 -2 -44t-17.5 -98t-42.5 -125q-11 4 -28.5 10.5t-62 17t-76.5 9.5v32v0zM695 101q74 -23 106 -55l24 22q-85 60 -117 62zM493 137v-197l35 2v196zM663 112q-3 -5 -7.5 -13.5t-19.5 -32t-30 -44t-36.5 -43.5t-41.5 -37q28 2 58 8q86 95 109 151zM528 599
q12 0 30.5 0.5t58.5 7.5t59 19q-4 7 -10 18.5t-24 42.5t-35 55.5t-39 49t-40 32.5q53 -6 65 -9q12 -16 31.5 -41.5t54 -81.5t39.5 -86q-12 -4 -33 -10.5t-71.5 -17t-85.5 -9.5v30zM708 637q109 51 112 67l23 -24q-94 -64 -125 -74zM294 399h199v169l35 1v-201h-234
q-2 0 0 31z" />
    <glyph glyph-name="zhandianpeizhi" unicode="&#xe681;" 
d="M406 308l-151 -150l-26 26l150 151l-42 42l-193 -193v0v0v0v0l-78 -241l240 78v0v0v0v0l193 194zM561 517l70 70l27 -27l-70 -70l93 -93l112 111l-163 162l-111 -111zM792 832l-106 -107l162 -162l107 107zM756 329q-28 0 -60 -17l-259 259q17 32 17 59q0 77 -62 139.5
t-138 62.5h-1.5h-1t-18.5 -18q10 -10 26 -25q38 -38 44.5 -48.5t5.5 -36.5v-10q0 -31 -38 -69t-68 -38h-12h-9q-5 0 -8.5 0.5t-7.5 1.5t-6.5 2t-7.5 5t-8 7t-10.5 10t-13 12.5t-16.5 17t-21 20.5l-18 -18q1 -78 63 -140t139 -62q27 0 58 16l259 -259q-15 -32 -15 -58
q0 -77 61.5 -139.5t138.5 -62.5h2l18 18q-9 10 -25 25q-38 38 -44.5 48.5t-6.5 36.5v10q0 31 38 69t68 38h12h10q5 0 8.5 -0.5t7.5 -1.5t6.5 -2t7 -5t8 -7t10.5 -10t13 -12.5t17 -17t21 -20.5l18 18q-1 78 -63 140t-139 62v0z" />
    <glyph glyph-name="huiyuan" unicode="&#xe619;" 
d="M637 750q14 -21 24 -47q28 -75 12 -165l-6 -31l30 -10q5 -2 10 -12q6 -14 3 -33q-2 -18 -10.5 -28.5t-15.5 -10.5v0h-1l-32 6l-10 -32q-21 -67 -68 -99l-18 -13l3 -22l6 -45l2 -20l18 -9l193 -93l56 -53q3 -5 5 -10h-650q1 3 3 7l57 59l189 90l17 9l3 19l8 45l3 23
l-19 13q-46 33 -67 99l-10 31l-31 -5h-1v0q-7 0 -15.5 10.5t-10.5 28.5q-3 17 2 29.5t11 15.5l29 10l-5 31q-7 35 -4 68q8 85 82 115q26 10 61 10q13 0 39 -2q23 -2 36 -2q45 0 72 23zM637 806l-15 -18q-18 -24 -57 -24q-11 0 -33 2q-28 2 -42 2q-42 0 -74 -13
q-95 -38 -106 -146q-3 -37 4 -78q-20 -7 -30.5 -31t-6.5 -54q5 -30 23 -50t40 -20h6h0.5h0.5q24 -78 81 -118l-7 -45l-195 -93l-64 -67h-1q-16 -31 -8.5 -49t29.5 -18h666q17 0 24.5 7t6 18.5t-5.5 22t-10 21.5v1l-64 61l-199 95l-6 45q58 40 83 119h1h6q22 0 40 20t23 50
q4 30 -7 54.5t-31 31.5q19 99 -14 184q-18 47 -42 73l-16 17v0zM560 173zM613 123zM132 81h-60q-19 0 -33.5 8.5t-18.5 22.5q-7 23 16 42l-1 2l190 116l2 13q-34 28 -52 74q-19 3 -34 20q-16 18 -20 45q-3 22 3.5 42t20.5 31q-3 25 -1 48q5 42 27 73t60 46q21 8 46 10l2 -37
q-19 -1 -34 -8q-58 -22 -64 -88q-2 -24 3 -50l3 -16l-15 -5q-8 -3 -12.5 -14.5t-2.5 -25.5t10 -24.5t17 -10.5h1h1l15 3l5 -15q16 -50 51 -75l10 -7l-9 -52l-187 -115l-5 -2q-8 -6 -10 -10q5 -4 16 -4h60v-37zM440 726zM960 81h-73v36h73q6 0 8 3q0 9 -22 21h-1l-177 106
l-7 52l10 6q35 25 50 74l5 16l17 -3h1q8 0 16 9.5t10 24t-2.5 26t-11.5 14.5l-15 5l3 15q12 65 -9 120q-9 24 -23 42q-14 -15 -35.5 -18.5t-40.5 -0.5l2 37q25 -2 34 -0.5t14 8.5l23 31l27 -28q19 -21 33 -58q23 -58 13 -126q14 -11 21 -30.5t4 -42.5q-4 -26 -21 -45
q-15 -16 -34 -19q-18 -46 -51 -74l1 -12l162 -97q49 -27 40 -63q-3 -13 -15 -21t-29 -8z" />
    <glyph glyph-name="dianyuan01" unicode="&#xe652;" 
d="M512 306q-24 0 -40.5 17t-16.5 40v309q0 24 16.5 40.5t40.5 16.5t40.5 -16.5t16.5 -40.5v-309q0 -23 -16.5 -40t-40.5 -17zM512 39q-91 0 -168.5 44.5t-122 122t-44.5 168.5q0 77 33 145.5t93 116.5q18 14 42 11.5t38.5 -21t12 -42t-21.5 -38.5q-39 -32 -61 -77t-22 -95
q0 -91 65 -156t156 -65t156 65t65 156q0 50 -22 95t-61 77q-19 15 -21.5 38.5t12 42t38.5 21t42 -11.5q60 -48 93 -116.5t33 -145.5q0 -91 -44.5 -168.5t-122 -122t-168.5 -44.5z" />
    <glyph glyph-name="huanyuan2" unicode="&#xe6ac;" 
d="M600 -63v0q-8 -1 -22 -1q-28 0 -47.5 19.5t-19.5 47.5t19.5 48t47.5 20q13 0 22 2v0q95 9 160 79t65 166q0 102 -72.5 174.5t-174.5 72.5q-96 0 -166 -65t-79 -160h133l-202 -224l-203 224h136q6 99 58 181.5t137.5 130t185.5 47.5q104 0 192 -51t139 -139t51 -191
q0 -100 -48 -185.5t-130.5 -137.5t-181.5 -58v0z" />
    <glyph glyph-name="weibiaoti46" unicode="&#xe63c;" 
d="M976 -60h-928q-20 0 -34 14t-14 33v793q0 20 14 33.5t34 13.5h928q20 0 34 -14t14 -33v-793q0 -20 -14 -33.5t-34 -13.5zM96 780q-20 0 -34 -14t-14 -33q0 -20 14 -33.5t34 -13.5t34 14t14 33t-14 33t-34 14zM240 780q-20 0 -34 -14t-14 -33q0 -20 14 -33.5t34 -13.5
t34 14t14 33t-14 33t-34 14zM384 780q-20 0 -34 -14t-14 -33q0 -20 14 -33.5t34 -13.5t34 14t14 33t-14 33t-34 14zM976 636h-928v-649h928v649zM356 512q8 8 16.5 0t0.5 -17l-168 -167l168 -167q8 -9 -0.5 -17t-16.5 0l-176 176q-4 3 -4 8q0 6 3 9zM569 462q6 10 16 4
q9 -5 5 -16l-136 -256q-6 -11 -16 -5q-9 5 -5 16zM651.5 512q8.5 8 16.5 0l176 -176q3 -3 3 -8.5t-3 -9.5l-176 -176q-8 -8 -16.5 0.5t-0.5 16.5l168 168l-168 168q-8 9 0.5 17z" />
    <glyph glyph-name="xiugai" unicode="&#xe682;" 
d="M922 -128h-820q-37 0 -64 26.5t-27 64.5v819q0 37 27 64t64 27h456h60h31q12 0 21 -9t9 -21.5t-9 -21.5t-21 -9h-31h-60h-425q-25 0 -43 -18t-18 -43v-758q0 -25 18 -42.5t43 -17.5h758q25 0 43 17.5t18 42.5v485v56v5q0 13 9 21.5t21.5 8.5t21.5 -8.5t9 -21.5v-61v-515
q0 -38 -27 -64.5t-64 -26.5v0zM426 274q-9 -9 -21.5 -9t-21.5 9t-9 21.5t9 21.5l546 547q8 9 21 9t21.5 -9t8.5 -21.5t-9 -21.5l-545 -547v0z" />
    <glyph glyph-name="i" unicode="&#xe683;" horiz-adv-x="1034" 
d="M860 296l-390 389q-24 25 -65 42t-75 17h-177v0q-43 0 -71 -28q-22 -22 -22 -51v-60h37v60q0 14 11 25q17 17 45 17v0l177 -1q27 0 61 -14t53 -33l390 -390q16 -16 16 -39t-16 -40l-220 -220q-17 -16 -40 -16t-40 16l-389 390q-20 20 -34 46t-14 42v48h-37v-48
q0 -24 17 -57t41 -58l390 -389q27 -28 66 -28q38 0 72 31l220 220q23 25 22 63.5t-28 65.5v0zM288 411q-42 0 -71.5 29.5t-29.5 71.5t29.5 71.5t71.5 29.5t71.5 -29.5t29.5 -71.5t-29.5 -71.5t-71.5 -29.5v0zM288 576q-26 0 -45 -18.5t-19 -45t19 -45.5q18 -18 45 -18t45 18
q18 19 18 45.5t-18.5 45t-44.5 18.5v0zM957 403l-390 390q-24 24 -65 41t-75 17h-177v0q-43 0 -71 -28q-22 -22 -22 -50l-1 -13h38v13q0 13 11 24q17 17 45 17v0h177q27 0 61 -14t53 -33l389 -390q17 -16 17 -39.5t-17 -39.5l-32 -35l6 -42l53 50q27 28 27 66.5t-27 65.5v0z
" />
    <glyph glyph-name="yumingguanli" unicode="&#xe6d7;" 
d="M687 -60q79 31 142.5 87t104.5 131h-172q-25 -127 -75 -218zM768 193h183q40 88 43 179h-211q-1 -92 -15 -179zM732 586h-199v-178h214q-1 93 -15 178zM747 372h-214v-179h199q14 87 15 179zM533 158v-249q59 3 109 17q56 92 84 232h-193v0zM389 -75q55 -15 109 -17v250
h-193q28 -141 84 -233zM92 158q42 -76 107 -132.5t146 -86.5q-51 90 -76 219h-177zM248 372h-216q3 -91 43 -179h188q-14 87 -15 179zM263 586h-190q-37 -84 -41 -178h216q1 93 15 178zM344 840q-81 -30 -146 -86.5t-107 -131.5h178q25 127 75 218zM498 622v249
q-54 -2 -110 -17q-57 -94 -84 -232h194zM284 408h214v178h-199q-14 -85 -15 -178zM299 193h199v179h-214q1 -92 15 -179zM643 853q-53 16 -110 18v-249h194q-27 137 -84 231zM934 622q-41 74 -104.5 130t-141.5 87q49 -91 74 -217h172zM783 408h211q-3 93 -42 178h-184
q14 -85 15 -178z" />
    <glyph glyph-name="useradd" unicode="&#xe8dc;" 
d="M777 -67q-46 0 -86.5 17.5t-70.5 47.5t-47.5 70.5t-17.5 86t17.5 86t47.5 70t70.5 47t86 17.5t86 -17.5t70 -47t47 -70t17.5 -86t-17.5 -86t-47 -70.5t-70 -47.5t-85.5 -17.5v0zM886 190h-80v75q0 15 -10 25.5t-25 10.5t-23.5 -10.5t-8.5 -25.5v-75h-70
q-16 0 -26.5 -10.5t-10.5 -26t11 -23t26 -7.5h70v-77q0 -15 8.5 -25.5t23.5 -10.5t25 10.5t10 25.5v77h80v-2q15 0 25.5 8.5t10.5 24t-10.5 26t-25.5 10.5v0zM619 459q-4 -17 -9 -31q-4 -12 -11 -25q-6 -12 -14 -18q-9 -8 -13 -17q-4 -8 -7 -17q-2 -9 -6 -19q-3 -10 -10 -20
q-25 -32 -38 -62q-12 -31 -17 -59t-2.5 -55.5t8.5 -53.5q4 -19 13 -40t25.5 -43.5t42.5 -43.5t65 -40q-26 -6 -61 -10q-29 -3 -71 -6q-43 -3 -98 -3q-28 0 -65 3q-38 2 -77 5q-41 3 -78 8q-39 4 -70 9q-32 5 -54 10t-28 10q-9 8 -14.5 47.5t2.5 103.5q6 36 29 54.5
t54.5 29.5t65.5 20t60 25q20 13 31 24.5t15.5 23.5t4.5 25t-1 28q-3 23 -16.5 36t-28.5 25q-8 7 -14.5 20t-11.5 25q-5 14 -8 31q-8 2 -14 7q-6 4 -12.5 12.5t-11.5 25.5t-3.5 31t5.5 23q4 12 12 21q0 37 4 73q5 32 14 67.5t29 63.5q20 27 42 44.5t46 27t47 13.5q24 4 46 4
q28 0 54 -6.5t48 -17.5t39.5 -24.5t27.5 -27.5q25 -31 36.5 -69t16.5 -71q6 -39 5 -78q6 -6 10 -13q5 -7 7 -17.5t0 -26.5q-2 -21 -8.5 -33t-14.5 -18q-8 -8 -18 -11v0z" />
    <glyph glyph-name="zhandianguanli" unicode="&#xe69e;" 
d="M1015 383l-479 503q-9 10 -22.5 10t-23.5 -10l-481 -503q-9 -10 -9 -23t9.5 -22.5t23 -9t22.5 9.5l43 45v-479q0 -13 9.5 -22.5t22.5 -9.5h223q13 0 22.5 9.5t9.5 22.5l1 320h254v-320q0 -13 9 -22.5t23 -9.5h222q14 0 23 9.5t9 22.5v479l43 -45q10 -10 23 -10t22.5 9.5
t9.5 22.5t-9 23zM862 441v-505h-159v320q0 13 -9 22.5t-22 9.5h-318q-14 0 -23 -9.5t-9 -22.5l-1 -320h-159v505q0 1 -2 7l353 370l351 -369q-2 -6 -2 -8z" />
    <glyph glyph-name="gongyingshangfuwu" unicode="&#xe61a;" 
d="M504 880q-102 0 -195 -40t-160.5 -107.5t-107.5 -160.5t-40 -195.5t40 -196t107.5 -160.5t160.5 -107t195.5 -40t195.5 40t160.5 107t107.5 160.5t40 196t-40 195.5t-107.5 160.5t-160.5 107.5t-196 40v0zM421 326q-17 -17 -56 -39v-177q0 -22 -23 -22q-19 2 -19 24v153
q-30 -13 -81 -30q-25 -2 -32 20q-3 22 19 29q57 17 94 37v177h-42q-2 -42 -22 -103q-7 -20 -27 -15q-20 7 -15 27q32 83 27 218q3 20 25 20q19 0 19 -22q0 -4 -2 -83h37v103q0 19 22 19q20 -2 20 -22v-100h34q17 0 20 -20q-2 -11 -7 -16.5t-13 -5.5h-34v-155q7 5 29 22
q17 10 29 -7q13 -15 -2 -32v0zM477 267q-12 15 3 32q15 12 29 0q30 -25 74 -81l3 -3q12 -19 -3 -34q-20 -12 -34 5q-3 5 -10 12q-29 37 -62 69v0zM779 331h-58v-182q-3 -83 -165 -42q-22 5 -17 27q7 20 29 15q108 -27 106 15v167h-219q-19 0 -22 22q3 22 22 22h219v66h-255
q-25 0 -25 22.5t25 22.5h142v76h-111q-19 0 -22 22q3 22 22 22h111v34q0 22 25 25q22 -3 22 -25v-34h140q22 0 24 -22q-2 -22 -24 -22h-140v-76h169q20 0 20 -22.5t-20 -22.5h-56v-66h58q20 0 20 -22t-20 -22v0zM779 331z" />
    <glyph glyph-name="weibiaoti1" unicode="&#xe6bd;" 
d="M508 -91q-115 5 -216 65q-12 8 -16 21t4 25q7 12 20 15t26 -4q73 -44 154 -54q160 -18 285 77q127 96 151 252q20 121 -33 231.5t-163 172.5q-103 58 -213 49q-235 -18 -337 -232q-40 -84 -34 -185q7 -100 60 -184q16 -25 -3 -44q-12 -11 -27 -9t-24 16q-42 65 -58 136
q-51 220 86 395q109 139 283 167q237 37 407 -136q99 -100 121 -246q5 -27 5 -48v-26v-14v-11q-2 -30 -8 -59q-30 -154 -149.5 -258t-277.5 -112h-43zM566 234v-93q0 -15 -9 -25t-23 -10q-15 0 -24.5 10t-9.5 25v190q0 9 -8 9q-68 -1 -188 0q-18 0 -28.5 13t-4.5 30
q7 22 32 22h187q6 0 8 2t2 8q-1 71 -1 185q0 17 11.5 27.5t27.5 7.5q12 -3 19 -12t7 -21q0 -22 0.5 -62.5t0.5 -55.5v-31.5v-40.5q0 -7 8 -7h189q15 0 25 -9t10 -23q0 -15 -9.5 -24.5t-25.5 -9.5h-170q-17 0 -18 1q-9 0 -9 -9q1 -14 1 -97v0zM618 297z" />
    <glyph glyph-name="anquanshezhi" unicode="&#xe684;" 
d="M807 194q-43 0 -74 -30.5t-31 -74t31 -74.5t74 -31t74 31t31 74.5t-31 74t-74 30.5zM807 14q-31 0 -53 22t-22 53t22 53t53 22t53 -22t22 -53t-22 -53t-53 -22zM803 384q19 0 41 -3q7 69 9 148.5t1 124.5l-2 45q-9 0 -25 2.5t-51.5 14.5t-55.5 31q-21 20 -34.5 52
t-16.5 53l-2 22q-119 22 -239 22q-52 0 -111.5 -5.5t-92.5 -10.5l-34 -6q0 -9 -3 -24t-16.5 -48.5t-33.5 -52.5q-21 -20 -55.5 -32.5t-52.5 -15t-24 -2.5q-9 -161 4 -300q11 -120 47 -212.5t120 -163.5q44 -37 106.5 -74.5t102.5 -57.5t40 -19q32 15 75 36q-32 68 -32 141
q0 91 45 168t122 122t168 45zM985 145h-9q-4 12 -10 24l7 6q11 11 11 26.5t-11 26.5l-27 27q-11 11 -26.5 11t-26.5 -11l-6 -7q-12 6 -24 10v9q0 16 -11 27t-26 11h-38q-15 0 -26 -11t-11 -27v-9q-12 -4 -23 -10l-7 7q-11 11 -26.5 11t-26.5 -11l-26 -27q-11 -11 -11 -26.5
t11 -26.5l6 -6q-6 -12 -10 -23h-9q-15 0 -26 -11t-11 -27v-37q0 -16 11 -27t26 -11h9q4 -12 10 -23l-7 -7q-11 -11 -11 -26.5t11 -26.5l27 -26q11 -11 26.5 -11t26.5 11l6 6q12 -5 24 -9v-9q0 -16 11 -27t26 -11h38q15 0 26 11t11 27v9q12 4 23 9l7 -6q11 -11 26.5 -11
t26.5 11l26 26q11 11 11 26.5t-11 26.5l-6 7q6 12 10 23h9q15 0 26 11t11 27v37q0 16 -11 26.5t-26 10.5zM807 -16q-43 0 -74 31t-31 74.5t31 74t74 30.5t74 -30.5t31 -74t-31 -74.5t-74 -31zM807 89zM732 89q0 31 22 53t53 22t53 -22t22 -53t-22 -53t-53 -22t-53 22t-22 53
z" />
    <glyph glyph-name="odpssql" unicode="&#xe6f0;" 
d="M944 816v-864h-864v864h864zM962 896h-900q-26 0 -44 -18t-18 -44v-900q0 -26 18 -44t44 -18h900q26 0 44 18t18 44v900q0 26 -18 44t-44 18v0zM156 690q0 16 6.5 28t17 20t23.5 12t26.5 4t26.5 -4t23.5 -12t17 -20t6.5 -28v-137q0 -16 -6.5 -28t-17 -19.5t-23.5 -11.5
t-26.5 -4t-26.5 4t-23.5 11.5t-17 19.5t-6.5 28v137zM200 553q0 -13 9 -19.5t21 -6.5t20.5 6.5t8.5 19.5v137q0 14 -8.5 20.5t-20.5 6.5t-21 -6.5t-9 -20.5v-137zM351 752h64q38 0 57.5 -18t19.5 -50v-121q0 -37 -20.5 -54t-59.5 -17h-61v260v0zM394 527h21q18 0 26 8t8 24
v125q0 16 -7.5 24.5t-26.5 8.5h-21v-190v0zM542 752h66q18 0 32 -4t25 -14.5t15.5 -24t4.5 -37.5q0 -17 -2.5 -29t-10.5 -23q-9 -13 -24 -20t-39 -7h-23v-101h-44v260v0zM586 628h21q14 0 21 3.5t10.5 9t4 13.5t0.5 18q0 9 -0.5 17.5t-3.5 14.5t-10 9.5t-20 3.5h-23v-89v0z
M868 677h-44v8q0 13 -7 22.5t-24 9.5q-9 0 -15 -3t-9 -7.5t-4.5 -10.5t-1.5 -13q0 -8 1 -13t3.5 -9t7.5 -7t13 -6l34 -11q14 -5 23.5 -11t14 -15t6.5 -20t2 -25q0 -17 -4 -31t-13 -24t-23.5 -15.5t-35.5 -5.5q-16 0 -29.5 4.5t-23.5 12.5t-16 19.5t-6 24.5v14h44v-12
q0 -10 7 -18t24 -8q11 0 17.5 2.5t9.5 7.5t4 12.5t1 15.5q0 11 -1 17.5t-3.5 10.5t-7.5 6.5t-13 5.5l-32 11q-28 10 -38 26t-10 41q0 14 5 27.5t14 22.5t23.5 15t33.5 6q16 0 29.5 -5t23.5 -13.5t15 -19t5 -21.5v-18v0zM298 81q-47 0 -80.5 10.5t-61.5 37.5l59 57
q14 -13 36.5 -19t47.5 -6q53 0 53 33q0 13 -5.5 19t-11 8.5t-15.5 3.5l-45 6q-50 7 -75.5 32.5t-25.5 73.5q0 51 37 83.5t100 32.5q41 0 71.5 -10.5t54.5 -33.5l-58 -57q-10 11 -25.5 16.5t-38.5 5.5h-7q-22 0 -33.5 -10t-11.5 -24q0 -6 2 -9.5t6 -7.5t9.5 -7t15.5 -4l45 -6
q50 -7 69.5 -25.5t26 -38.5t6.5 -46q0 -54 -41.5 -84.5t-103.5 -30.5zM615 -6v110q-24 -21 -64 -21q-42 0 -63 20.5t-26 45t-5 59.5v15q0 45 4 71t26 47.5t65 21.5q22 0 37 -6t28 -20v25h84v-368h-86v0zM578.5 287q-22.5 0 -29 -15.5t-6.5 -50t6.5 -49.5t29 -15t29.5 15
t7 49.5t-7 50t-29.5 15.5zM820 83q-44 0 -66 24.5t-22 57.5v284h86v-278q0 -17 18 -17h30v-71h-46v0z" />
    <glyph glyph-name="ht_expand" unicode="&#xe65c;" 
d="M421 768h-246q-20 0 -34 -14t-14 -34v-246q0 -19 14 -33.5t34 -14.5h246q20 0 34 14.5t14 33.5v246q0 20 -14 34t-34 14zM702 436q10 -9 23.5 -9t22.5 9l139 139q10 9 10 22.5t-10 23.5l-139 139q-9 9 -22.5 9t-23.5 -9l-138 -139q-10 -10 -10 -23.5t10 -22.5zM421 341
h-246q-20 0 -34 -14t-14 -34v-246q0 -20 14 -34t34 -14h246q20 0 34 14t14 34v246q0 20 -14 34t-34 14zM849 341h-246q-20 0 -34 -14t-14 -34v-246q0 -20 14 -34t34 -14h246q20 0 34 14t14 34v246q0 20 -14 34t-34 14z" />
    <glyph glyph-name="gongzhonghao" unicode="&#xe65d;" 
d="M911 150l32 -128q2 -8 -5 -14q-3 -3 -8 -3q-3 0 -5 1l-129 58q-50 -19 -104 -19q-109 0 -186.5 69.5t-77.5 168t77.5 168t187 69.5t187 -69.5t77.5 -167.5q0 -73 -46 -133zM692.5 474q-89.5 0 -153.5 -56.5t-64 -136t64 -136.5t153 -57q48 0 91 18q5 2 10 0l99 -45
l-24 99q-2 6 2 10q40 50 40 111q0 80 -64 136.5t-153.5 56.5zM774 296q-11 0 -18.5 7.5t-7.5 18.5t7.5 19t18.5 8t19 -8t8 -19t-8 -18.5t-19 -7.5zM611 296q-11 0 -19 7.5t-8 18.5t8 19t19 8t18.5 -8t7.5 -19t-7.5 -18.5t-18.5 -7.5zM527 520.5q0 -13.5 -9.5 -23t-23 -9.5
t-23 9.5t-9.5 23t9.5 23t23 9.5t23 -9.5t9.5 -23zM249 520.5q0 13.5 9.5 23t23 9.5t23 -9.5t9.5 -23t-9.5 -23t-23 -9.5t-23 9.5t-9.5 23zM388 716q-114 0 -195 -72t-81 -173q0 -78 51 -141q5 -6 3 -13l-31 -126l126 57q6 3 12 0q55 -22 115 -22q16 0 36 2l12 -45
q-26 -3 -48 -3q-66 0 -128 24l-157 -71q-3 -2 -6 -2q-6 0 -11 4q-8 7 -5 16l38 158q-55 74 -55 163q0 79 43.5 146t118 106t162.5 39q116 0 205 -65.5t112 -165.5h-50q-24 80 -98 132t-169 52z" />
    <glyph glyph-name="beifenyuhuifu" unicode="&#xe7c7;" horiz-adv-x="1037" 
d="M589 815q118 0 217 -57.5t157 -157t58 -216.5t-58 -216.5t-157 -157.5t-217 -58v93q141 0 240 99t99 239.5t-99 240t-239.5 99.5t-239.5 -99q-75 -75 -94 -179h179l-215 -246l-216 246h158q23 158 144 264t283 106zM774 445v-123h-246v308h123v-185h123z" />
    <glyph glyph-name="dengdaishenhe" unicode="&#xe686;" 
d="M512 886q-102 0 -195 -40t-160 -107t-107 -160t-40 -195t40 -195t107 -160t160 -107t195 -40t195 40t160 107t107 160t40 195t-40 195t-107 160t-160 107t-195 40zM772 128l-2 -1q-50 -50 -116.5 -78t-139.5 -28q-75 0 -141.5 28.5t-116.5 78.5q-51 51 -79 117.5
t-28 140.5t28 140.5t79 116.5q50 50 117 78.5t141 28.5t140.5 -28.5t117.5 -78.5l1 -1q50 -51 77.5 -117t27.5 -139q0 -74 -28 -140.5t-78 -117.5zM733 602l-1 1q-91 91 -218 91q-129 0 -219 -90v-1q-90 -90 -90 -217t90 -218v0q90 -91 219 -91q127 0 217 90l1 1
q90 91 90 218t-89 216zM673 358h-159q-12 0 -20.5 8t-8.5 20v0v251q0 11 8.5 19.5t20 8.5t20 -8.5t8.5 -19.5v-224h131q12 0 20 -8t8 -19.5t-8 -19.5t-20 -8z" />
    <glyph glyph-name="jiaoseguanli2" unicode="&#xea62;" 
d="M793 362q-78 -53 -172 -53t-171 52q-102 -49 -163.5 -147t-61.5 -216q0 -41 58.5 -70.5t147 -42.5t191 -13t191 13.5t147 43t58.5 69.5q0 118 -62 216t-163 148v0v0zM354 625q0 112 78.5 191.5t188.5 79.5t188.5 -79.5t78.5 -191.5t-78.5 -191.5t-188.5 -79.5
t-188.5 79.5t-78.5 191.5v0v0v0zM178 -16q0 -9 3 -18q-80 13 -127.5 37.5t-47.5 59.5q0 102 53.5 186.5t140.5 127.5q64 -42 140 -45q-76 -63 -119 -154t-43 -194v0v0zM310 625q0 102 58 184q-9 1 -19 1q-91 0 -155 -65t-64 -157.5t64 -158t155 -65.5q40 0 77 14
q-54 45 -85 109.5t-31 137.5v0zM310 625z" />
    <glyph glyph-name="zixuntousu" unicode="&#xe685;" 
d="M511 7q-47 0 -91 9l-214 -130v215q-85 59 -133.5 146t-48.5 186q0 116 65 214t177 155.5t244.5 57.5t244.5 -57.5t177 -155.5t65 -214t-65 -214t-177 -155t-244 -57zM511 798q-116 0 -214.5 -48.5t-155.5 -133t-57 -183.5q0 -91 49 -169.5t132 -129.5v-142l144 86
q53 -11 103 -11q116 0 214.5 49t155.5 133t57 184q-1 99 -58.5 183.5t-155.5 133t-214 48.5zM724 464h-427q-12 0 -21.5 9t-9.5 21.5t9.5 21.5t21.5 9h427q13 0 22 -9t9 -21.5t-9 -21.5t-22 -9zM359 342h304q12 0 21 -9t9 -21.5t-9 -21.5t-21 -9h-304q-13 0 -22 9t-9 21.5
t9 21.5t22 9z" />
    <glyph glyph-name="zhandianguanli1" unicode="&#xe687;" horiz-adv-x="1025" 
d="M1023 779q-1 1 1 8t-7 15.5t-27 8.5h-606v0v0v-45v0h5t11.5 -2.5t14.5 -7t11.5 -14.5t5.5 -23q-1 -2 -1.5 -5t-4 -10.5t-8.5 -13.5t-14 -10.5t-20 -4.5q-2 0 -5 -0.5t-11 1.5t-14 5.5t-12 13.5t-7 24q1 21 13 33t24 13l12 1v45h-348q-31 0 -35 -32l-1 -3v-149h1023v152z
M96 674l-5 -0.5t-12.5 2t-14.5 6t-12 13.5t-5 24t5 24t12.5 14.5t14.5 6.5t12 2h5q24 1 36 -11t12 -24v-12v-5t-2.5 -11t-7 -14t-14.5 -10.5t-24 -4.5zM239 674q-1 0 -5 -0.5t-11 2t-14 6t-12 13.5t-5 24q3 47 48 47q16 0 26.5 -5t15 -12t6.5 -14t2 -12l-1 -4v-5.5t-2 -11.5
t-6.5 -14t-15.5 -10.5t-26 -3.5zM974 5h-927v622h-47v-640q1 -1 0 -7.5t7.5 -14t24.5 -7.5h960q1 1 8 -0.5t15 6.5t8 24v639h-49v-622zM532 174l153 -145q1 -1 4 -2.5t11.5 -3.5t15.5 4l76 71q14 17 -4 33l-152 143q-2 2 -5 3.5t-12.5 4t-17.5 -5.5l-20 -19l-32 30l-32 -34
l30 -28l-19 -19q-1 0 -3.5 -4t-1.5 -12t9 -16zM822 521l-104 -96l-89 83l105 95q-3 2 -8 4t-21.5 5.5t-33.5 3.5t-43 -7t-51 -22q-5 -4 -13 -10.5t-24.5 -29t-22.5 -47.5q-1 -3 -2 -7.5t-2.5 -19.5t0.5 -29t9 -33.5t21 -36.5l-48 -37l-163 154v47l-97 55l-48 -44l58 -89h52
l161 -152l-244 -191q-2 -2 -5 -6t-7.5 -16.5t1.5 -24.5q3 -13 31 -36q2 -1 4 -2.5t9.5 -5t15 -4.5t18.5 1.5t21 10.5l292 299q4 -3 10.5 -6t27.5 -8.5t42 -5.5q7 -1 18 0t38.5 10t48.5 26l3 2.5t7.5 7t10.5 11.5t12 16t11 19.5t8.5 24t4 27.5t-2.5 30.5t-11 33.5zM256 54
q-10 1 -16.5 7t-7.5 10.5t-1 5.5q0 3 0.5 7t7 10.5t18.5 6.5q2 0 6 -1t11 -6.5t7 -16.5v0q0 -2 -1 -5.5t-7 -10t-17 -7.5z" />
    <glyph glyph-name="anquanshezhi1" unicode="&#xe688;" 
d="M512 770q125 -94 280 -123q8 0 19.5 -3.5t14.5 -3.5v-211q0 -147 -86.5 -267t-227.5 -177q-144 56 -229 176t-85 268v0v204q3 0 11.5 3.5t15.5 3.5q171 43 287 130zM512 852q-126 -105 -307 -144q-21 -6 -75 -20v-266v0q0 -176 107.5 -319t274.5 -200q170 57 276 199
t106 320v0v0v266q-34 7 -88 20q-150 36 -294 144v0zM683 551l-219 -218l-116 116l-48 -48l164 -164l266 267z" />
    <glyph glyph-name="liuyan1" unicode="&#xe68a;" 
d="M512 -128q-104 0 -199 40.5t-163.5 109t-109 163.5t-40.5 199t40.5 199t109 163.5t163.5 109t199 40.5t199 -40.5t163.5 -109t109 -163.5t40.5 -199t-40.5 -199t-109 -163.5t-163.5 -109t-199 -40.5zM512 863q-97 0 -186 -38t-153 -102t-102 -153t-38 -186t38 -186
t102 -153t153 -102t186 -38t186 38t153 102t102 153t38 186t-38 186t-102 153t-153 102t-186 38zM487 181q-10 -9 -25 -13l-210 -103q-17 -8 -28.5 4t-4.5 30l103 209q3 16 12 25l373 373q14 14 33.5 14t33.5 -14l85 -85q14 -14 14 -34t-14 -34l-372 -372v0v0v0zM264 128
q-4 -9 2 -15t15 -2l130 78l-68 68l-79 -129v0v0v0zM385 282l51 -51v0l2 -1v-1l1 -1v0l1 -1h1v-1l1 -1h1l1 -1v-1l1 -1l1 -1l1 -1h1l1 -1l1 -1l1 -1l1 -1l1 -1l271 270l-86 85l-270 -271l17 -17v0v0v0zM808 604l-51 51q-7 7 -16.5 7t-16.5 -7l-50 -50l83 -86l51 51q7 7 7 17
t-7 17v0v0v0zM808 604z" />
    </font>
</defs>
</svg>
