<?xml version="1.0" standalone="no"?>
<!DOCTYPE svg PUBLIC "-//W3C//DTD SVG 1.1//EN" "http://www.w3.org/Graphics/SVG/1.1/DTD/svg11.dtd" >
<svg xmlns="http://www.w3.org/2000/svg">
<metadata></metadata>
<defs>
<font id="adminthemesregular" horiz-adv-x="508" >
<font-face units-per-em="2048" ascent="1638" descent="-410" />
<missing-glyph horiz-adv-x="500" />
<glyph horiz-adv-x="0" />
<glyph unicode="&#xd;" />
<glyph unicode=" " />
<glyph unicode="!" horiz-adv-x="672" d="M207 136q0 15 16 31l82 84q15 14 29 14q13 0 31 -16l80 -86q12 -16 12 -29q0 -15 -14 -31l-80 -88q-20 -20 -29 -20q-16 0 -29 14l-88 101q-10 13 -10 26zM264 1364q0 46 21 69t62 23q42 0 62.5 -23t20.5 -69l-80 -1036h-37z" />
<glyph unicode="#" horiz-adv-x="1444" d="M100 460q0 -21 15 -36t36 -15h51v919h920v51q0 22 -15 37t-36 15h-920q-21 0 -36 -15t-15 -37v-919zM304 255q0 -21 15 -36t36 -15h614v154h-511v204l204 204l230 -230l128 128l306 -306v817q0 21 -15 36t-36 15h-920q-21 0 -36 -15t-15 -36v-920zM969 971q0 42 30 72 q29 30 72 30q42 0 72 -30t30 -72q0 -43 -30 -72q-30 -30 -72 -30q-43 0 -72 30q-30 29 -30 72zM1020 102l127 102l77 -204l51 26l-76 204h153l-332 383v-511z" />
<glyph unicode="$" horiz-adv-x="1636" d="M100 131q0 -6 2 -13q15 -50 130 -84q116 -34 273 -34t273 34q115 34 130 84q2 7 2 13v65q97 -20 214 -20q157 0 272 34t130 84q2 7 2 13v767l-1 230q-13 52 -128 88q-117 37 -275 37q-157 0 -273 -36q-115 -35 -130 -87q-2 -8 -2 -17v-306q-98 21 -214 21 q-159 0 -275 -37q-116 -36 -129 -88l-1 -230v-518zM152 132v153q61 -26 159 -43q92 -16 194 -16t194 16q29 5 55 11q39 9 70 19q18 6 33 13v-153q-7 -24 -95 -50q-108 -32 -257 -32t-257 32q-88 25 -96 50zM152 377v153q61 -26 159 -43q92 -16 194 -16t194 16q9 2 20 4 q64 12 111 28q15 6 27 11v-153q-7 -23 -86 -48q-5 -1 -9 -2q-20 -6 -43 -11q-96 -21 -214 -21q-149 0 -257 32q-88 25 -96 50zM152 617v154q61 -26 159 -43q92 -16 194 -16t194 16q9 1 20 4q68 12 116 30q12 4 22 9v-154q-7 -22 -86 -47q-5 -1 -9 -3q-20 -6 -43 -11 q-96 -21 -214 -21q-149 0 -257 32q-88 26 -96 50zM152 868q1 6 17 17q25 18 72 34q110 35 264 35q118 0 214 -22q26 -6 49 -13q1 0 2 -1h1q45 -15 70 -33q15 -11 16 -17q-1 -7 -16 -18q-25 -18 -70 -33q-2 0 -3 -1q-23 -7 -49 -13q-96 -22 -214 -22q-154 0 -264 35 q-47 16 -72 34q-16 11 -17 18zM771 1043v153q61 -26 159 -43q92 -16 194 -16q101 0 193 16q98 17 159 43v-153q-8 -25 -95 -51q-109 -31 -257 -31q-149 0 -258 31q-87 26 -95 51zM771 1293q1 6 17 17q25 19 72 34q109 35 264 35q154 0 263 -35q47 -15 73 -34q15 -11 16 -17 q-1 -7 -16 -18q-26 -18 -73 -34q-109 -35 -263 -35q-155 0 -264 35q-47 16 -72 34q-16 11 -17 18zM874 923q27 -6 56 -11q92 -16 194 -16q101 0 193 16q98 17 159 43v-153q-8 -24 -95 -50q-109 -32 -257 -32q-118 0 -214 21l-2 138q-5 23 -34 44zM909 247v175q10 -2 21 -4 q92 -16 194 -16t193 16q98 17 159 43v-153q-8 -25 -95 -50q-109 -32 -257 -32q-118 0 -215 21zM909 496v175q11 -2 21 -4q92 -16 194 -16t193 16q98 17 159 43v-153q-8 -24 -95 -50q-109 -32 -257 -32q-118 0 -215 21z" />
<glyph unicode="*" horiz-adv-x="1629" d="M100 786q0 -20 14 -34t34 -14h95q20 0 34 14t14 34t-14 34t-34 14h-95q-20 0 -34 -14t-14 -34zM281 1177q0 -20 14 -34l67 -67q14 -14 34 -14q19 0 33 14t14 34q0 19 -14 33l-67 68q-14 14 -34 14q-19 0 -33 -14t-14 -34zM386 715q0 -178 125 -304q126 -125 303 -125 q178 0 304 125q125 126 125 304q0 177 -125 303q-126 125 -304 125q-177 0 -303 -125q-125 -126 -125 -303zM481 715q0 138 98 235q97 98 235 98q139 0 236 -98q98 -97 98 -235q0 -139 -98 -236q-97 -98 -236 -98q-138 0 -235 98q-98 97 -98 236zM624 191q0 -20 14 -34 t34 -14h285q20 0 34 14t14 34q0 19 -14 33t-34 14h-285q-20 0 -34 -14t-14 -33zM719 48q0 -20 14 -34t34 -14h95q20 0 34 14t14 34q0 19 -14 33t-34 14h-95q-20 0 -34 -14t-14 -33zM767 1286q0 -20 14 -34t33 -14q20 0 34 14t14 34v95q0 20 -14 34t-34 14q-19 0 -33 -14 t-14 -34v-95zM1186 1110q0 -20 14 -34t33 -14q20 0 34 14l67 67q14 14 14 34t-14 34t-33 14q-20 0 -34 -14l-67 -68q-14 -14 -14 -33zM1338 786q0 -20 14 -34t34 -14h95q20 0 34 14t14 34t-14 34t-34 14h-95q-20 0 -34 -14t-14 -34z" />
<glyph unicode="/" horiz-adv-x="1477" d="M100 154q0 -64 45 -109t109 -45h966q64 0 109 45q46 45 46 109v1120q0 64 -46 110q-45 45 -109 45h-966q-64 0 -109 -45q-45 -46 -45 -110v-1120zM177 193v39q0 32 23 54q23 23 54 23h966q32 0 55 -23q22 -22 22 -54v-78q0 -32 -22 -54q-23 -23 -55 -23h-966 q-29 0 -54 42q-23 38 -23 74zM177 380v895q0 31 23 54t54 23h966q32 0 55 -23q22 -22 22 -54v-895q-19 6 -38 6h-1043q-19 0 -39 -6zM293 888l174 -193l174 193h-153q8 98 79 165q72 67 170 67q104 0 178 -73q73 -74 73 -178q0 -99 -67 -170q-67 -72 -164 -79v-2 q-16 0 -28 -11q-11 -12 -11 -28t11 -27q12 -11 28 -11q3 0 10 2q126 11 212 104q87 94 87 222q0 136 -97 232q-96 96 -232 96q-130 0 -225 -90q-95 -89 -102 -219h-117zM1104 212q0 -24 17 -41q17 -16 41 -16t41 16q17 17 17 41t-17 41t-41 17t-41 -17t-17 -41z" />
<glyph unicode="&#x3e;" horiz-adv-x="979" d="M100 61q0 -25 18 -43t43 -18t43 18l649 650l6 4q17 18 17 43t-17 43l-654 654q-18 17 -43 17t-43 -17q-18 -18 -18 -43t18 -43l611 -611l-612 -611q-18 -18 -18 -43z" />
<glyph unicode="C" horiz-adv-x="1514" d="M100 709v258q0 21 15 37q15 15 37 15h438v283q0 54 38 91q38 38 91 38h77q54 0 91 -38q38 -37 38 -91v-283h439q21 0 36 -15q15 -16 15 -37v-258q0 -21 -15 -36t-36 -15h-26v-394q0 -114 26 -212q0 -22 -15 -37q-16 -15 -37 -15h-1109q-21 0 -36 15t-15 37q25 94 25 207 v399h-25q-22 0 -37 15t-15 36zM100 709v258q0 21 15 37q15 15 37 15h438v283q0 54 38 91q38 38 91 38h77q54 0 91 -38q38 -37 38 -91v-283h439q21 0 36 -15q15 -16 15 -37v-258q0 -21 -15 -36t-36 -15h-26v-394q0 -114 26 -212q0 -22 -15 -37q-16 -15 -37 -15h-1109 q-21 0 -36 15t-15 37q25 94 25 207v399h-25q-22 0 -37 15t-15 36zM152 735q0 -26 25 -26h1161q26 0 26 26v206q0 26 -26 26h-464v322q0 38 -27 64q-26 27 -64 27h-51q-38 0 -64 -27q-26 -26 -26 -64v-322h-465q-25 0 -25 -26v-206zM168 752q0 -26 26 -26h1127q26 0 26 26 v173q0 26 -26 26h-464v338q0 37 -26 56q-24 18 -64 18h-19q-39 0 -64 -18q-26 -19 -26 -56v-338h-464q-26 0 -26 -26v-173zM203 52h271v341q0 20 19 20h13q20 0 20 -20v-341h219v341q0 20 19 20h13q19 0 19 -20v-341h207v341q0 20 19 20h13q19 0 19 -20v-341h258 q-26 92 -26 207v399h-1057v-399q0 -115 -26 -207zM220 68h254v325q0 20 19 20h13q20 0 20 -20v-325h219v325q0 20 19 20h13q19 0 19 -20v-325h207v325q0 20 19 20h13q19 0 19 -20v-325h242q-26 76 -26 191v399h-1025v-399q0 -115 -25 -191z" />
<glyph unicode="I" horiz-adv-x="1703" d="M101 884q5 16 22 19l485 73l214 441q8 16 25 16t25 -15l219 -439l486 -67q17 -3 22 -19q2 -5 2 -10q0 -10 -9 -18l-349 -344l29 -161q2 -11 -5 -21q-6 -9 -17 -11t-21 5q-9 6 -11 17l-31 175q-3 14 7 25l320 315l-445 62q-14 2 -20 15l-202 401l-196 -404q-6 -13 -20 -15 l-444 -67l323 -312q10 -10 8 -24l-73 -443l396 211q13 7 26 1l448 -233q10 -5 13 -16q4 -11 -1 -21q-6 -10 -16 -13q-11 -4 -21 2l-436 225l-432 -231q-6 -3 -13 -3q-9 0 -16 5q-14 10 -11 27l79 484l-353 340q-8 8 -8 19q0 4 1 9z" />
<glyph unicode="Q" horiz-adv-x="1540" d="M100 644q0 -267 197 -455q196 -189 473 -189q278 0 474 189q197 189 197 455q0 178 -95 330q-95 153 -259 237q-14 7 -29 3q-14 -4 -22 -18q-7 -13 -2 -27q4 -14 18 -21q145 -75 230 -210q85 -136 85 -294q0 -237 -175 -405t-422 -168q-246 0 -421 168t-175 405 q0 158 85 294q86 136 232 211q13 7 18 21q4 14 -3 27t-22 18q-15 4 -28 -3q-165 -84 -260 -237q-96 -153 -96 -331zM733 644q0 -15 11 -26q11 -10 26 -10q16 0 27 10q11 11 11 26v751q0 14 -11 25q-11 10 -27 10q-15 0 -26 -10q-11 -11 -11 -25v-751z" />
<glyph unicode="S" horiz-adv-x="1714" d="M100 714q0 64 16 148q13 71 64 71h1h7q81 0 139 57q58 58 58 139q0 39 -17 76q-13 28 -4 59q8 30 34 48l2 1l196 108l2 1q16 7 36 7q43 0 71 -29q83 -88 156 -88q71 0 154 86q28 29 71 29q20 0 37 -8h2l189 -106l2 -1q25 -18 34 -48q8 -31 -4 -59q-18 -38 -18 -76 q0 -81 58 -139q58 -57 139 -57h7h1q51 0 64 -71q16 -84 16 -148q0 -65 -16 -148q-13 -71 -64 -71h-1h-7q-81 0 -139 -57q-58 -58 -58 -139q0 -34 18 -76q12 -28 4 -59q-9 -31 -34 -48l-2 -2l-193 -106l-2 -1q-16 -7 -36 -7q-44 0 -71 30q-85 93 -159 93q-75 0 -158 -91 q-28 -30 -72 -30q-19 0 -36 8l-2 1l-186 103l-1 2q-26 17 -34 48q-9 31 4 59q17 38 17 76q0 81 -58 139q-58 57 -139 57h-8q-51 0 -64 71q-16 84 -16 148zM189 714q0 -53 14 -130q113 -6 192 -88q79 -83 79 -197q0 -54 -24 -111l173 -97q4 0 6 2q28 30 67 58q83 62 157 62 t158 -63q39 -29 67 -59q2 -2 5 -2h1l180 99q-25 57 -25 111q0 114 79 197q79 82 192 88q14 77 14 130t-14 130q-113 6 -192 88q-79 83 -79 197q0 54 25 110l-177 99h-1q-4 0 -7 -2q-27 -28 -65 -55q-82 -58 -153 -58q-72 0 -155 59q-38 27 -66 56q-2 2 -6 2h-1l-183 -101 q24 -56 24 -110q0 -114 -79 -197q-79 -82 -192 -88q-14 -77 -14 -130zM591 715q0 108 77 185t185 77q109 0 186 -77q76 -77 76 -185t-76 -185q-77 -77 -186 -77q-108 0 -185 77t-77 185zM680 715q0 -72 51 -122q51 -51 122 -51q72 0 123 51q50 50 50 122q0 71 -50 122 q-51 51 -123 51q-71 0 -122 -51t-51 -122z" />
<glyph unicode="U" horiz-adv-x="1621" d="M100 134q0 102 205 172q126 43 299 66q-2 12 -10 30q-129 81 -193 221q-68 48 -86 114q-7 24 -7 47q0 57 46 98v16q-1 30 -1 57q0 108 10 165q21 124 91 196q112 114 361 114q248 0 360 -114q71 -73 91 -196q10 -58 10 -165q0 -27 -1 -57v-16q46 -42 46 -98q0 -22 -7 -47 q-18 -65 -85 -114q-64 -140 -193 -221q-8 -18 -11 -30q174 -23 300 -66q204 -70 204 -172q0 -50 -25 -77q-26 -28 -83 -40q-75 -17 -367 -17h-239h-240q-281 0 -358 15q-117 23 -117 119zM184 134q0 -15 6 -21q10 -9 43 -16q69 -13 342 -13h240h239q244 0 318 9q73 10 73 41 q0 37 -122 83q-136 52 -333 75l-14 2l-10 9q-26 25 -26 62q0 33 25 85l6 11l11 6q119 71 175 201l5 12l11 7q49 31 61 73q5 20 -2 39q-7 18 -20 26l-22 12l1 63q1 34 1 63q0 88 -7 134q-16 104 -70 160q-87 89 -300 89t-301 -89q-54 -56 -70 -160q-7 -46 -7 -134 q0 -29 1 -63l1 -63l-21 -12q-14 -8 -21 -26q-7 -19 -2 -39q13 -43 62 -74l11 -7l5 -12q55 -129 175 -200l11 -6l5 -12q25 -51 25 -84q0 -37 -27 -62l-10 -10l-13 -1q-197 -24 -333 -76q-122 -46 -122 -82z" />
<glyph unicode="X" horiz-adv-x="1596" d="M100 1215l385 -521l-320 -416l247 -278l365 402l354 -402l322 187l-436 509l485 483v2l-236 248l-496 -443l-385 443z" />
<glyph unicode="Y" horiz-adv-x="2087" d="M101 640l660 -640q219 306 491 615q128 145 226 246q77 80 190 185q209 196 305 254l-99 131q-136 -85 -387 -259q-75 -52 -173 -123q-48 -34 -167 -126q-180 -137 -358 -289l-317 298z" />
<glyph unicode="a" horiz-adv-x="1625" d="M100 0h624v89h-535v535h-89v-624zM100 802h89v535h535v89h-624v-624zM457 624h267v-268h178v268h268v178h-268v267h-178v-267h-267v-178zM902 0h624v624h-89v-535h-535v-89zM902 1337h535v-535h89v624h-624v-89z" />
<glyph unicode="d" horiz-adv-x="1489" d="M100 98q10 -36 37 -64q29 -30 61 -34h507v110h-457q-17 0 -28 12q-12 12 -12 28v1062q0 44 31 76q32 31 76 31h845q16 0 28 -11q11 -12 11 -29v-511h110v564q0 40 -28 69q-29 28 -69 28h-895q-90 0 -153 -63q-64 -64 -64 -154v-1114zM320 767v110h769v-110h-769z M320 1011v110h769v-110h-769zM755 114l76 -76l231 231l248 -249l74 76l-248 249l246 244l-76 80l-246 -248l-227 226l-74 -76l227 -226z" />
<glyph unicode="e" horiz-adv-x="1529" d="M100 153v1023q0 64 45 109t108 45h716q22 0 37 -15t15 -36q0 -22 -15 -37t-37 -15h-716q-21 0 -36 -15t-15 -36v-1023q0 -21 15 -36t36 -15h921q21 0 36 15t15 36v819q0 21 15 36t36 15t36 -15t15 -36v-819q0 -63 -45 -108t-108 -45h-921q-63 0 -108 45t-45 108zM305 563 q0 21 15 36t36 15h613q22 0 37 -15t15 -36q0 -22 -15 -37t-37 -15h-613q-21 0 -36 15t-15 37zM305 869q0 22 15 37t36 15h307q21 0 36 -15t15 -37q0 -21 -15 -36t-36 -15h-307q-21 0 -36 15t-15 36zM822 869q0 22 15 37l509 508q15 15 36 15t36 -15t15 -36q0 -22 -15 -37 l-508 -508q-15 -15 -36 -15q-22 0 -37 15t-15 36z" />
<glyph unicode="n" horiz-adv-x="1356" d="M100 611q0 -169 92 -295q134 -184 471 -310l16 -6l15 6q337 126 471 310q92 126 92 295v646l-45 -1q-17 -1 -37 -1q-201 0 -352 72q-80 37 -112 72l-32 34l-32 -34q-29 -33 -111 -73q-151 -71 -353 -71q-20 0 -38 1l-45 1v-646zM338 709l78 64l154 -117q214 227 420 334 l29 -35q-257 -219 -390 -511z" />
<glyph unicode="p" horiz-adv-x="1308" d="M100 127q0 -52 37 -90q38 -37 90 -37h850q52 0 90 37q37 38 37 90v604q0 53 -37 90q-38 38 -90 38h-850q-52 0 -90 -38q-37 -37 -37 -90v-604zM164 940q0 189 141 336q146 152 341 152q196 0 341 -152q142 -147 142 -336h-128q0 153 -102 257q-103 104 -253 104 t-252 -104q-103 -104 -103 -257h-127zM550 259v259q0 39 28 67t67 28h14q39 0 67 -28t28 -67v-259q0 -40 -28 -67q-28 -28 -67 -28h-14q-39 0 -67 28q-28 27 -28 67z" />
<glyph unicode="u" horiz-adv-x="1415" d="M100 201q0 -201 611 -201q608 0 608 201v45q0 86 -133 177q-113 77 -278 132q-20 6 -32 28q-10 19 -10 43q0 27 12 63h-1q71 73 115 176q46 109 46 217q0 164 -98 260q-91 88 -230 88q-140 0 -230 -88q-98 -96 -98 -260q0 -109 46 -218q44 -103 115 -176q11 -29 11 -53 q0 -26 -13 -47q-16 -24 -40 -33q-160 -58 -270 -134q-131 -92 -131 -175v-45z" />
<glyph unicode="v" horiz-adv-x="1444" d="M100 112q0 -47 33 -79q32 -33 79 -33h1027q46 0 79 33q32 32 32 79v870q0 47 -59 127q-48 66 -121 139q-74 74 -139 122q-81 59 -127 59h-692q-47 0 -79 -33q-33 -33 -33 -79v-1205zM189 112v1205q0 23 23 23h692v-313q0 -18 13 -31q13 -14 31 -14h313v-870 q0 -23 -22 -23h-1027q-23 0 -23 23zM311 706q0 -128 91 -219t219 -91q103 0 173 50l253 -253q8 -8 17 -8.5t18 8.5l33 34q17 17 0 34l-252 252q68 85 68 193q0 129 -91 219q-91 91 -219 91t-219 -91q-91 -90 -91 -219zM418 706q0 84 60 144q59 59 143 59t143 -59 q60 -60 60 -144t-60 -143q-59 -59 -143 -59t-143 59q-60 59 -60 143zM993 1072v215q54 -43 113 -102h1q59 -59 101 -113h-215z" />
<glyph unicode="x" horiz-adv-x="1832" d="M106 23q14 -23 41 -23h1546q20 0 33 14q14 13 14 32q0 18 -11 31l-769 1331q-13 22 -40 22q-28 0 -41 -22l-773 -1338q-6 -12 -6 -23.5t6 -23.5zM227 93l693 1199l692 -1199h-1385zM850 325q0 -29 20 -49q21 -20 50 -20q28 0 49 20q20 20 20 49t-20 50q-21 19 -49 19 q-29 0 -50 -19q-20 -21 -20 -50zM858 873l9 -448h103l9 448h-121z" />
<glyph unicode="&#xa0;" />
<glyph unicode="&#x2000;" horiz-adv-x="728" />
<glyph unicode="&#x2001;" horiz-adv-x="1456" />
<glyph unicode="&#x2002;" horiz-adv-x="728" />
<glyph unicode="&#x2003;" horiz-adv-x="1456" />
<glyph unicode="&#x2004;" horiz-adv-x="485" />
<glyph unicode="&#x2005;" horiz-adv-x="364" />
<glyph unicode="&#x2006;" horiz-adv-x="242" />
<glyph unicode="&#x2007;" horiz-adv-x="242" />
<glyph unicode="&#x2008;" horiz-adv-x="182" />
<glyph unicode="&#x2009;" horiz-adv-x="291" />
<glyph unicode="&#x200a;" horiz-adv-x="80" />
<glyph unicode="&#x202f;" horiz-adv-x="291" />
<glyph unicode="&#x205f;" horiz-adv-x="364" />
<glyph unicode="&#x25fc;" horiz-adv-x="500" d="M0 0z" />
</font>
</defs>
</svg>
